<?xml version="1.0" standalone="no"?>
<!DOCTYPE svg PUBLIC "-//W3C//DTD SVG 1.1//EN" "http://www.w3.org/Graphics/SVG/1.1/DTD/svg11.dtd" >
<svg xmlns="http://www.w3.org/2000/svg" xmlns:xlink="http://www.w3.org/1999/xlink" version="1.1">
<metadata>
Created by FontForge 20200511 at Fri Aug  9 17:23:25 2024
 By convertio
Copyright 2013 Google LLC
</metadata>
<defs>
<font id="NotoEmoji-Regular" horiz-adv-x="2600" vert-adv-y="2048" >
  <font-face 
    font-family="Noto Emoji"
    font-weight="400"
    font-stretch="normal"
    units-per-em="2048"
    panose-1="5 2 1 3 1 2 2 2 2 2"
    ascent="1638"
    descent="-410"
    bbox="15 -415 2585 1815"
    underline-thickness="131"
    underline-position="1179"
    unicode-range="U+000D-FE837"
  />
<missing-glyph horiz-adv-x="1000" vert-adv-y="2600" 
d="M104 0v1400h792v-1400h-792zM194 78h612v1244h-612v-1244z" />
    <glyph glyph-name=".notdef" horiz-adv-x="1000" vert-adv-y="2600" 
d="M104 0v1400h792v-1400h-792zM194 78h612v1244h-612v-1244z" />
    <glyph glyph-name="uni0000" horiz-adv-x="1200" vert-adv-y="2600" 
 />
    <glyph glyph-name="uni000D" unicode="&#xd;" horiz-adv-x="1200" vert-adv-y="2600" 
 />
    <glyph glyph-name="space" unicode=" " vert-adv-y="2600" 
 />
    <glyph glyph-name="numbersign" unicode="#" vert-adv-y="2600" 
d="M964 135l61 334h-201v107h222l51 256h-214v106h233l64 339h116l-64 -339h230l64 339h110l-64 -339h203v-106h-224l-49 -256h219v-107h-240l-66 -334h-113l65 334h-228l-63 -334h-112zM1160 576h228l50 256h-229z" />
    <glyph glyph-name="asterisk" unicode="*" vert-adv-y="2600" 
d="M1451 329l-159 316l-139 -315l-185 94l220 293l-336 26l30 194l354 -102l-41 359h206l-42 -359l363 102l26 -197l-341 -23l223 -295z" />
    <glyph glyph-name="zero" unicode="0" vert-adv-y="2600" 
d="M1298 177q205 0 293 156t88 433q0 186 -42 317t-126.5 200.5t-212.5 69.5q-137 0 -220 -70t-120.5 -201t-37.5 -316q0 -277 92.5 -433t285.5 -156zM1296 297q-130 0 -183.5 117t-53.5 352q0 156 23 260t75.5 155.5t138.5 51.5t138 -51.5t76 -155.5t24 -260
q0 -236 -55 -352.5t-183 -116.5z" />
    <glyph glyph-name="one" unicode="1" vert-adv-y="2600" 
d="M1375 194h138v1143h-117l-309 -240l74 -95l121 99q32 26 54 45t47 45q-4 -45 -6 -87.5t-2 -110.5v-799z" />
    <glyph glyph-name="two" unicode="2" vert-adv-y="2600" 
d="M922 194h756v128h-578v6l238 236q87 87 153 163t103 154t37 167q0 142 -93 223t-252 81q-73 0 -136 -18t-116.5 -48t-98.5 -68l75 -94q66 51 129 79.5t147 28.5q90 0 145.5 -49t55.5 -143q0 -77 -30.5 -141.5t-89.5 -131.5t-145 -154l-300 -302v-117z" />
    <glyph glyph-name="three" unicode="3" vert-adv-y="2600" 
d="M1238 178q227 0 332.5 95.5t105.5 245.5q0 113 -67.5 183.5t-204.5 86.5v7q108 21 172.5 89.5t64.5 183.5q0 122 -87.5 202.5t-266.5 80.5q-115 0 -205 -35t-152 -83l71 -96q64 42 130 69t158 27q96 0 152 -45.5t56 -128.5q0 -65 -32.5 -113.5t-96.5 -75.5t-158 -27h-112
v-120h111q151 0 235.5 -47.5t84.5 -154.5q0 -106 -68 -166t-222 -60q-76 0 -159.5 20t-155.5 56v-132q71 -34 147.5 -48t166.5 -14z" />
    <glyph glyph-name="four" unicode="4" vert-adv-y="2600" 
d="M1422 194h136v259h167v127h-167v756h-145l-538 -763v-120h547v-259zM1013 580l342 483q17 24 36.5 59.5t32.5 65.5h6q-1 -35 -3 -72.5t-3.5 -81t-1.5 -99.5v-355h-409z" />
    <glyph glyph-name="five" unicode="5" vert-adv-y="2600" 
d="M1234 179q202 0 315 101.5t113 279.5q0 160 -104.5 248t-279.5 88q-57 0 -103 -6.5t-73 -11.5l27 330h453v128h-573l-43 -538l70 -45q35 9 92 16.5t103 7.5q149 0 218 -60t69 -172q0 -126 -78 -186t-204 -60q-76 0 -158 20.5t-140 54.5v-133q53 -31 130.5 -46.5
t165.5 -15.5z" />
    <glyph glyph-name="six" unicode="6" vert-adv-y="2600" 
d="M1311 298q-60 0 -106 26t-77 68.5t-46.5 94.5t-15.5 104q0 51 31.5 99t87.5 79.5t131 31.5q110 0 165.5 -63.5t55.5 -173.5q0 -136 -62.5 -201t-163.5 -65zM1313 180q167 0 265 103t98 281q0 166 -91 256.5t-240 90.5q-103 0 -169 -39t-102 -95h-9q6 125 40 230
t115.5 168.5t229.5 63.5q36 0 73 -4.5t65 -14.5v120q-26 8 -66.5 11t-74.5 3q-161 0 -263.5 -57.5t-159 -154.5t-78.5 -216t-22 -242q0 -128 30 -223t83 -157.5t123.5 -93t152.5 -30.5z" />
    <glyph glyph-name="seven" unicode="7" vert-adv-y="2600" 
d="M1064 194h155l464 1034v108h-767v-128h616z" />
    <glyph glyph-name="eight" unicode="8" vert-adv-y="2600" 
d="M1300 291q-123 0 -182 55.5t-59 138.5q0 58 24.5 102.5t73 80.5t118.5 66l25 -9q110 -40 175 -96.5t65 -139.5q0 -87 -62 -142.5t-178 -55.5zM1303 179q114 0 198.5 38t130.5 108t46 166q0 78 -34.5 134t-92 98.5t-128.5 76.5q89 46 153.5 111.5t64.5 168.5
q0 89 -44 149.5t-121 92t-177 31.5q-97 0 -174.5 -31.5t-122 -92t-44.5 -148.5q0 -70 26.5 -123t72 -93.5t101.5 -72.5q-94 -43 -165.5 -116.5t-71.5 -189.5q0 -145 99 -226t283 -81zM1305 854q-88 38 -148.5 85.5t-60.5 135.5q0 80 56.5 122.5t144.5 42.5q92 0 148.5 -42.5
t56.5 -122.5q0 -86 -57 -136t-140 -85z" />
    <glyph glyph-name="nine" unicode="9" vert-adv-y="2600" 
d="M1151 180q162 0 264.5 57.5t159 154t78.5 215.5t22 242q0 128 -29.5 222.5t-82.5 156.5t-123 93t-151 31q-166 0 -265 -103t-99 -282q0 -165 89.5 -255t237.5 -90q104 0 169.5 39t101.5 94h10q-5 -125 -39 -229.5t-115.5 -167.5t-230.5 -63q-36 0 -74 5.5t-67 15.5v-120
q26 -8 69 -12t75 -4zM1282 733q-111 0 -165 63t-54 172q0 135 63 200.5t163 65.5q61 0 106.5 -26t76 -69t46 -94.5t15.5 -103.5q0 -50 -30.5 -98t-87 -79t-133.5 -31z" />
    <glyph glyph-name="copyright" unicode="&#xa9;" vert-adv-y="2600" 
d="M1300 -340q-227 0 -417 77t-330 217t-216.5 330t-76.5 416q0 227 76.5 417t216.5 330t330 216.5t417 76.5q215 0 403.5 -76.5t331.5 -216.5t224 -330t81 -417q0 -226 -77 -416t-217 -330t-330 -217t-416 -77zM1343 64q-188 0 -312.5 79t-186 222.5t-61.5 334.5
q0 185 66 327.5t193 223.5t311 81q87 0 178 -21.5t170 -62.5l-81 -174q-71 37 -138 55.5t-126 18.5q-112 0 -190.5 -54t-119.5 -154.5t-41 -239.5q0 -144 35 -244.5t111.5 -153t201.5 -52.5q65 0 146.5 18.5t149.5 45.5v-181q-67 -30 -136.5 -49.5t-169.5 -19.5zM1300 -189
q182 0 341 65.5t280 185t189.5 282t68.5 356.5q0 184 -65 345.5t-182.5 284t-278.5 192t-353 69.5q-193 0 -354 -65.5t-279.5 -185t-183.5 -282.5t-65 -358q0 -184 65 -345t183.5 -283.5t279.5 -191.5t354 -69z" />
    <glyph glyph-name="registered" unicode="&#xae;" vert-adv-y="2600" 
d="M1300 -340q-226 0 -416 77t-330 217t-217 330t-77 416t77 416t217 330t330 217t416 77t416 -77t330 -217t217 -330t77 -416t-77 -416t-217 -330t-330 -217t-416 -77zM1300 -190q192 0 353.5 65.5t279.5 185t183 282.5t65 357t-65 357t-183 282.5t-279.5 185t-353.5 65.5
t-353.5 -65.5t-279.5 -185t-183 -282.5t-65 -357t65 -357t183 -282.5t279.5 -185t353.5 -65.5zM912 79v1238h363q232 0 339.5 -91t107.5 -274q0 -133 -67.5 -210.5t-152.5 -111.5l329 -551h-245l-283 490h-175v-490h-216zM1128 745h141q111 0 173 56t62 145q0 101 -57 145.5
t-181 44.5h-138v-391z" />
    <glyph glyph-name="uni200D" unicode="&#x200d;" horiz-adv-x="0" vert-adv-y="2600" 
 />
    <glyph glyph-name="uniFE0E" unicode="&#xfe0e;" horiz-adv-x="0" vert-adv-y="2600" 
 />
    <glyph glyph-name="uniFE0F" unicode="&#xfe0f;" horiz-adv-x="0" vert-adv-y="2600" 
 />
    <glyph glyph-name="doubleExclamationMark" unicode="&#x203c;" vert-adv-y="2600" 
d="M1532 355l-33 1385h347l-33 -1385h-281zM928 -340q-62 0 -114 31t-83 83t-31 114t31 113.5t83 82.5t114 31t113.5 -31t82.5 -82.5t31 -113.5t-31 -114t-82.5 -83t-113.5 -31zM1672 -340q-62 0 -113.5 31t-82.5 83t-31 114t31 113.5t82.5 82.5t113.5 31q63 0 114.5 -31
t82.5 -82.5t31 -113.5t-31 -114t-82.5 -83t-114.5 -31zM787 355l-33 1385h347l-33 -1385h-281z" />
    <glyph glyph-name="exclamationQuestionMark" unicode="&#x2049;" vert-adv-y="2600" 
d="M1450 349q3 97 17.5 166.5t44 125t78.5 109.5t122 120q62 57 106 102.5t67 95.5t23 119q0 139 -71 218t-207 79q-130 0 -209 -72.5t-94 -194.5h-296q0 149 76.5 267t211 187t308.5 69q279 0 431 -146t152 -396q0 -93 -30 -171.5t-99 -159.5t-186 -183q-65 -57 -98.5 -100
t-47 -96t-19.5 -139h-280zM621 -340q-64 0 -116.5 31t-83.5 83t-31 114t31 113.5t83.5 82.5t116.5 31q63 0 115 -31t83 -82.5t31 -113.5t-31 -114t-83 -83t-115 -31zM1589 -340q-64 0 -116.5 31t-83.5 83t-31 114t31 113.5t83.5 82.5t116.5 31q63 0 115 -31t83 -82.5
t31 -113.5t-31 -114t-83 -83t-115 -31zM477 355l-33 1385h352l-33 -1385h-286z" />
    <glyph glyph-name="uni20E3" unicode="&#x20e3;" vert-adv-y="2600" 
d="M426 -340q-68 0 -117 48.5t-49 115.5v1751q0 68 49 116.5t116 48.5h1750q68 0 116.5 -48.5t48.5 -116.5v-1750q0 -67 -48.5 -116t-116.5 -49h-1749zM426 -260h1749q35 0 60 25.5t25 59.5v1750q0 35 -25 60t-60 25h-1750q-34 0 -59.5 -25t-25.5 -60v-1751q0 -34 25.5 -59
t60.5 -25zM382 -286l268 269h1271q41 0 69.5 29t28.5 71v1268l268 268q16 -20 18.5 -43t2.5 -69v-1682q0 -46 -32.5 -78.5t-77.5 -32.5h-1816z" />
    <glyph glyph-name="tradeMark" unicode="&#x2122;" vert-adv-y="2600" 
d="M1262 150v1100h205l339 -901h6l345 901h203v-1100h-137v676q0 54 1.5 107.5t4.5 100t5 79.5h-6l-367 -963h-114l-362 964h-6q5 -47 8 -128t3 -169v-667h-128zM584 150v978h-344v122h824v-122h-342v-978h-138z" />
    <glyph glyph-name="information" unicode="&#x2139;" vert-adv-y="2600" 
d="M1170 -31h260v993h-260v-993zM1300 1090q69 0 117 48t48 117t-48 117t-117 48t-117 -48t-48 -117t48 -117t117 -48zM426 -340q-68 0 -117 48.5t-49 115.5v1751q0 68 49 116.5t116 48.5h1750q68 0 116.5 -48.5t48.5 -116.5v-1750q0 -67 -48.5 -116t-116.5 -49h-1749z" />
    <glyph glyph-name="arrowboth" unicode="&#x2194;" vert-adv-y="2600" 
d="M425 -340q-67 0 -116 49t-49 116v1751q0 68 49 116t117 48h1749q68 0 116.5 -48.5t48.5 -116.5v-1750q0 -67 -48.5 -116t-116.5 -49h-1750zM1001 267v314h598v-314l462 433l-462 433v-314h-598v314l-462 -433z" />
    <glyph glyph-name="arrowupdn" unicode="&#x2195;" vert-adv-y="2600" 
d="M425 -340q-67 0 -116 49t-49 116v1751q0 68 49 116t117 48h1749q68 0 116.5 -48.5t48.5 -116.5v-1750q0 -67 -48.5 -116t-116.5 -49h-1750zM1300 -61l433 462h-314v598h314l-433 462l-433 -462h314v-598h-314z" />
    <glyph glyph-name="upLeftArrow" unicode="&#x2196;" vert-adv-y="2600" 
d="M425 -340q-67 0 -116 49t-49 116v1750q0 68 49 116.5t116 48.5h1750q68 0 116.5 -48.5t48.5 -116.5v-1751q0 -67 -49 -115.5t-117 -48.5h-1749zM1713 143l169 169l-662 661l222 222l-632 20l20 -632l222 222z" />
    <glyph glyph-name="upRightArrow" unicode="&#x2197;" vert-adv-y="2600" 
d="M426 -340q-68 0 -117 48.5t-49 115.5v1751q0 68 49 116.5t116 48.5h1750q68 0 116.5 -48.5t48.5 -116.5v-1750q0 -67 -48.5 -116t-116.5 -49h-1749zM887 143l661 662l222 -222l20 632l-632 -20l222 -222l-662 -661z" />
    <glyph glyph-name="downRightArrow" unicode="&#x2198;" vert-adv-y="2600" 
d="M425 -340q-67 0 -116 49t-49 116v1751q0 68 49 116t117 48h1749q68 0 116.5 -48.5t48.5 -116.5v-1750q0 -67 -48.5 -116t-116.5 -49h-1750zM1790 185l-20 632l-222 -222l-661 662l-169 -169l662 -661l-222 -222z" />
    <glyph glyph-name="downLeftArrow" unicode="&#x2199;" vert-adv-y="2600" 
d="M426 -340q-68 0 -117 48.5t-49 115.5v1751q0 68 49 116.5t116 48.5h1750q68 0 116.5 -48.5t48.5 -116.5v-1750q0 -67 -48.5 -116t-116.5 -49h-1749zM810 185l632 20l-222 222l662 661l-169 169l-661 -662l-222 222z" />
    <glyph glyph-name="rightArrowCurvingLeft" unicode="&#x21a9;" vert-adv-y="2600" 
d="M425 -340q-67 0 -116 49t-49 116v1750q0 68 49 116.5t116 48.5h1749q68 0 117 -48t49 -116v-1751q0 -67 -48.5 -116t-116.5 -49h-1750zM970 28v314h589q151 0 268.5 67t185 184.5t67.5 267.5q0 152 -67 269.5t-184.5 184t-269.5 66.5h-480v-237h480q129 0 206.5 -77.5
t77.5 -205.5q0 -127 -78 -204t-206 -77h-589v314l-462 -433z" />
    <glyph glyph-name="leftArrowCurvingRight" unicode="&#x21aa;" vert-adv-y="2600" 
d="M425 -340q-67 0 -116 49t-49 116v1750q0 68 49 116.5t116 48.5h1749q68 0 117 -48t49 -116v-1751q0 -67 -48.5 -116t-116.5 -49h-1750zM1630 28l462 433l-462 433v-314h-589q-128 0 -206 77t-78 204q0 128 77.5 205.5t206.5 77.5h480v237h-480q-152 0 -269.5 -66.5
t-184.5 -184t-67 -269.5q0 -150 67.5 -267.5t185 -184.5t268.5 -67h589v-314z" />
    <glyph glyph-name="uni231A" unicode="&#x231a;" vert-adv-y="2600" 
d="M1236 -75q-157 0 -296 60t-244.5 166t-165.5 246t-60 300t60 300t165.5 246t244.5 166t296 60q158 0 296.5 -60t244 -166t165.5 -246t60 -300t-60 -300t-165.5 -246t-244 -166t-296.5 -60zM769 -340l-72 277l78 20l56 -217h800l56 217l78 -20l-72 -277h-924zM739 376
l-30 51l89 51l30 -51zM966 171l-51 29l51 88l52 -29zM804 -105q-80 0 -127 33.5t-67.5 120t-20.5 246.5h21q139 -173 286 -250t328 -77t328.5 77t286.5 250h20q0 -160 -20.5 -246.5t-67.5 -120t-127 -33.5h-244h-124h-45t-6.5 0t-6.5 0h-45.5h-124h-244.5zM645 667v60h102
v-60h-102zM1206 106v102h60v-102h-60zM798 915l-88 52l29 51l88 -51zM1506 170l-51 89l51 30l51 -89zM1172 675l-225 135l41 69l226 -136zM1236 5q141 0 265 54t219 149t148.5 220.5t53.5 268.5t-53.5 268.5t-148.5 220.5t-219 149t-265 54t-265 -54t-219 -149
t-148.5 -220.5t-53.5 -268.5t53.5 -268.5t148.5 -220.5t219 -149t265 -54zM1236 592q-43 0 -74 31t-31 74q0 44 31 74.5t74 30.5t74 -30.5t31 -74.5q0 -43 -31 -74t-74 -31zM966 1105l-51 89l51 30l51 -89zM1733 376l-88 51l29 52l88 -52zM1292 686l-32 52l289 179l33 -51z
M1725 667v60h102v-60h-102zM1206 1186v102h60v-102h-60zM596 1102q0 160 20.5 246t67.5 119.5t127 33.5h244.5h124h45.5t6.5 0t6.5 0h45h124h244q80 0 127 -33.5t67.5 -119.5t20.5 -246h-20q-139 173 -286.5 249.5t-328.5 76.5t-328 -76.5t-286 -249.5h-21zM1506 1106
l-52 29l52 88l51 -29zM1674 916l-30 51l89 51l30 -51zM1974 578q-33 0 -33 32v182q0 32 33 32h107q22 0 35.5 -36.5t13.5 -86.5q0 -49 -13.5 -86t-35.5 -37h-107zM775 1443l-78 20l72 277h924l72 -277l-78 -20l-56 217h-800z" />
    <glyph glyph-name="hourglassDone" unicode="&#x231b;" vert-adv-y="2600" 
d="M1821 -12q0 254 -107.5 417t-344.5 260v66q236 98 344 268t108 438h81q0 -290 -119 -477t-371 -290l-3 57q255 -103 374 -283.5t119 -455.5h-81zM1300 -340q-149 0 -275 10.5t-216.5 29.5t-133.5 44q-20 12 -27.5 24.5t-7.5 35.5v181h78v-249l-51 102q86 -52 243 -75
t390 -23t390 23t243 75l-51 -102v249h78v-181q0 -23 -7.5 -35.5t-27.5 -24.5q-43 -25 -133.5 -44t-216.5 -29.5t-275 -10.5zM1300 -131q-130 0 -248.5 8t-211.5 22.5t-146.5 34t-53.5 41.5q0 23 53.5 42t146 34t211.5 23t249 8q131 0 249.5 -8t211 -23t146 -34t53.5 -42
q0 -22 -53.5 -41.5t-146.5 -34t-211.5 -22.5t-248.5 -8zM867 1q8 39 41 90.5t80.5 109t96.5 113.5q47 54 88.5 104.5t63.5 89.5q23 40 36.5 54t26.5 14q14 0 27.5 -14t35.5 -54q22 -39 63.5 -89.5t88.5 -104.5q49 -56 96.5 -113.5t81 -109t40.5 -90.5h-866zM698 -12
q0 275 119 455.5t374 283.5l-3 -57q-252 103 -371 290t-119 477h81q0 -268 108.5 -438t343.5 -268v-66q-237 -97 -344.5 -260t-107.5 -417h-81zM1300 1328q-138 0 -264 11.5t-219.5 31.5t-136.5 44q-23 14 -31.5 29.5t-8.5 43.5v145h78v-222l-58 116q41 -56 212 -87.5
t428 -31.5t428.5 31.5t211.5 87.5l-58 -116v222h78v-145q0 -28 -8.5 -43.5t-31.5 -29.5q-42 -24 -136 -44t-219.5 -31.5t-264.5 -11.5zM1300 1527q-130 0 -248.5 8t-211.5 22.5t-146.5 34t-53.5 41.5q0 23 53.5 42t146 34t211.5 23t249 8q131 0 249.5 -8t211 -23t146 -34
t53.5 -42q0 -22 -53.5 -41.5t-146.5 -34t-211.5 -22.5t-248.5 -8z" />
    <glyph glyph-name="uni2328" unicode="&#x2328;" vert-adv-y="2600" 
d="M389 10q-104 0 -162 58t-58 162v940q0 104 58 162t162 58h1822q104 0 162 -58t58 -162v-940q0 -104 -58 -162t-162 -58h-1822zM389 90h1822q71 0 105.5 34.5t34.5 105.5v940q0 71 -34.5 105.5t-105.5 34.5h-1822q-71 0 -105.5 -34.5t-34.5 -105.5v-940q0 -71 34.5 -105.5
t105.5 -34.5zM405 396h84q22 0 22 24v83q0 10 -6.5 17.5t-15.5 7.5h-84q-22 0 -22 -25v-83q0 -24 22 -24zM627 396h83q11 0 18 7t7 17v83q0 10 -6.5 17.5t-16.5 7.5h-83q-23 0 -23 -25v-83q0 -24 21 -24zM405 609h224q22 0 22 24v83q0 24 -22 24h-224q-22 0 -22 -24v-83
q0 -24 22 -24zM405 821h155q22 0 22 25v83q0 24 -22 24h-155q-22 0 -22 -24v-83q0 -10 7 -17.5t15 -7.5zM762 609h83q22 0 22 22v83q0 23 -22 23h-83q-23 0 -23 -23v-83q0 -8 7 -15t16 -7zM407 1034h84q22 0 22 24v84q0 24 -22 24h-84q-22 0 -22 -24v-84q0 -24 22 -24z
M689 821h83q10 0 17.5 7.5t7.5 17.5v83q0 24 -25 24h-83q-22 0 -22 -24v-83q0 -10 6.5 -17.5t15.5 -7.5zM975 609h83q22 0 22 22v83q0 23 -22 23h-83q-23 0 -23 -23v-83q0 -8 7 -15t16 -7zM609 1034h84q22 0 22 24v84q0 24 -22 24h-84q-22 0 -22 -24v-84q0 -24 22 -24z
M847 396h904q24 0 24 24v83q0 11 -6.5 18t-17.5 7h-904q-24 0 -24 -25v-83q0 -9 7.5 -16.5t16.5 -7.5zM893 821h83q24 0 24 25v83q0 24 -24 24h-83q-24 0 -24 -24v-83q0 -10 7.5 -17.5t16.5 -7.5zM1187 609h84q22 0 22 22v83q0 23 -22 23h-84q-22 0 -22 -23v-83
q0 -8 6.5 -15t15.5 -7zM811 1034h84q10 0 17 7.5t7 16.5v84q0 24 -24 24h-84q-24 0 -24 -24v-84q0 -24 24 -24zM1095 821h83q10 0 17.5 7.5t7.5 17.5v83q0 24 -25 24h-83q-24 0 -24 -24v-83q0 -10 7.5 -17.5t16.5 -7.5zM1400 609h83q23 0 23 22v83q0 23 -23 23h-83
q-22 0 -22 -23v-83q0 -8 6.5 -15t15.5 -7zM1015 1034h84q10 0 17 7.5t7 16.5v84q0 24 -24 24h-84q-24 0 -24 -24v-84q0 -24 24 -24zM1297 821h83q10 0 17.5 7.5t7.5 17.5v83q0 24 -25 24h-83q-24 0 -24 -24v-83q0 -10 7.5 -17.5t16.5 -7.5zM1613 609h83q22 0 22 22v83
q0 23 -22 23h-83q-23 0 -23 -23v-83q0 -8 7 -15t16 -7zM1217 1034h84q10 0 17 7.5t7 16.5v84q0 24 -24 24h-84q-24 0 -24 -24v-84q0 -24 24 -24zM1889 396h84q24 0 24 24v83q0 10 -6.5 17.5t-17.5 7.5h-84q-24 0 -24 -25v-83q0 -24 24 -24zM1501 821h83q10 0 17.5 7.5
t7.5 17.5v83q0 24 -25 24h-83q-24 0 -24 -24v-83q0 -10 7.5 -17.5t16.5 -7.5zM1421 1034h84q10 0 17 7.5t7 16.5v84q0 24 -24 24h-84q-24 0 -24 -24v-84q0 -24 24 -24zM2109 396h83q11 0 18 7t7 17v83q0 10 -7 17.5t-18 7.5h-83q-24 0 -24 -25v-83q0 -9 7.5 -16.5t16.5 -7.5
zM1703 821h83q10 0 17.5 7.5t7.5 17.5v83q0 24 -25 24h-83q-24 0 -24 -24v-83q0 -10 7.5 -17.5t16.5 -7.5zM1825 607h366q24 0 24 24v89q0 24 -24 24h-366q-9 0 -16.5 -7t-7.5 -17v-89q0 -10 7.5 -17t16.5 -7zM1623 1034h84q10 0 17 7.5t7 16.5v84q0 24 -24 24h-84
q-24 0 -24 -24v-84q0 -24 24 -24zM1907 821h83q24 0 24 25v83q0 24 -24 24h-83q-24 0 -24 -24v-83q0 -10 7 -17.5t17 -7.5zM1825 1034h84q10 0 17 7.5t7 16.5v84q0 24 -24 24h-84q-24 0 -24 -24v-84q0 -10 7.5 -17t16.5 -7zM2109 821h83q10 0 17.5 7.5t7.5 17.5v83
q0 24 -25 24h-83q-24 0 -24 -24v-83q0 -10 7.5 -17.5t16.5 -7.5zM2038 1034h154q10 0 17.5 7.5t7.5 16.5v84q0 11 -7.5 17.5t-17.5 6.5h-154q-24 0 -24 -24v-84q0 -24 24 -24zM2351 615h80v-200q0 -104 -58 -162t-162 -58h-1822q-104 0 -162 58t-58 162v200h80v-200
q0 -71 34.5 -105.5t105.5 -34.5h1822q71 0 105.5 34.5t34.5 105.5v200z" />
    <glyph glyph-name="ejectButton" unicode="&#x23cf;" vert-adv-y="2600" 
d="M425 -340q-67 0 -116 49t-49 116v1750q0 68 49 116.5t116 48.5h1749q68 0 117 -48t49 -116v-1751q0 -67 -48.5 -116t-116.5 -49h-1750zM785 91h1030v195h-1030v-195zM780 472h1040l-520 883z" />
    <glyph glyph-name="fastForwardButton" unicode="&#x23e9;" vert-adv-y="2600" 
d="M425 -340q-67 0 -116 49t-49 116v1750q0 68 49 116.5t116 48.5h1750q68 0 116.5 -48.5t48.5 -116.5v-1751q0 -67 -49 -115.5t-117 -48.5h-1749zM639 254l634 374v-374l757 446l-757 446v-374l-634 374v-892z" />
    <glyph glyph-name="fastReverseButton" unicode="&#x23ea;" vert-adv-y="2600" 
d="M426 -340q-68 0 -117 48.5t-49 115.5v1751q0 68 49 116.5t116 48.5h1750q68 0 116.5 -48.5t48.5 -116.5v-1750q0 -67 -48.5 -116t-116.5 -49h-1749zM1327 254v374l634 -374v892l-634 -374v374l-757 -446z" />
    <glyph glyph-name="fastUpButton" unicode="&#x23eb;" vert-adv-y="2600" 
d="M425 -340q-67 0 -116 49t-49 116v1750q0 68 49 116.5t116 48.5h1750q68 0 116.5 -48.5t48.5 -116.5v-1751q0 -67 -49 -115.5t-117 -48.5h-1749zM854 39h892l-374 634h374l-446 757l-446 -757h374z" />
    <glyph glyph-name="fastDownButton" unicode="&#x23ec;" vert-adv-y="2600" 
d="M425 -340q-67 0 -116 49t-49 116v1750q0 68 49 116.5t116 48.5h1749q68 0 117 -48t49 -116v-1751q0 -67 -48.5 -116t-116.5 -49h-1750zM1300 -30l446 757h-374l374 634h-892l374 -634h-374z" />
    <glyph glyph-name="nextTrackButton" unicode="&#x23ed;" vert-adv-y="2600" 
d="M425 -340q-67 0 -116 49t-49 116v1750q0 68 49 116.5t116 48.5h1750q68 0 116.5 -48.5t48.5 -116.5v-1751q0 -67 -49 -115.5t-117 -48.5h-1749zM559 254l634 374v-374l619 365v-360h222v882h-222v-360l-619 365v-374l-634 374v-892z" />
    <glyph glyph-name="lastTrackButton" unicode="&#x23ee;" vert-adv-y="2600" 
d="M426 -340q-68 0 -117 48.5t-49 115.5v1751q0 68 49 116.5t116 48.5h1750q68 0 116.5 -48.5t48.5 -116.5v-1750q0 -67 -48.5 -116t-116.5 -49h-1749zM566 259h222v360l619 -365v374l634 -374v892l-634 -374v374l-619 -365v360h-222v-882z" />
    <glyph glyph-name="playOrPauseButton" unicode="&#x23ef;" vert-adv-y="2600" 
d="M425 -340q-67 0 -116 49t-49 116v1750q0 68 49 116.5t116 48.5h1749q68 0 117 -48t49 -116v-1751q0 -67 -48.5 -116t-116.5 -49h-1750zM604 254l757 446l-757 446v-892zM1496 259h183v882h-183v-882zM1821 259h183v882h-183v-882z" />
    <glyph glyph-name="uni23F0" unicode="&#x23f0;" vert-adv-y="2600" 
d="M1300 -340q-187 0 -350.5 70t-287 194.5t-193 288t-69.5 350.5q0 186 70 349.5t193.5 287.5t287 194t349.5 70q187 0 350 -70t286.5 -194t193.5 -287t70 -350t-70 -351t-193.5 -288t-286.5 -194t-350 -70zM793 -340l-68 42l92 144l68 -42zM1042 35l-70 40l52 90l70 -40z
M813 234l-40 70l90 52l40 -70zM715 522v80h104v-80h-104zM1260 -24v104h80v-104h-80zM1807 -340l-93 144l68 42l93 -144zM863 768l-90 52l40 70l90 -52zM1558 35l-52 90l70 40l52 -90zM1244 534l-225 136l40 69l226 -136zM1300 -260q170 0 319 63.5t261.5 177t176 262.5
t63.5 320q0 170 -63.5 319t-176 262t-261.5 176.5t-319 63.5t-318.5 -64t-261.5 -177t-176.5 -261.5t-63.5 -318.5q0 -171 63.5 -320t176 -262t261 -177t319.5 -64zM1300 -170q-152 0 -284.5 57t-233 157.5t-157.5 233.5t-57 285t57 284.5t157.5 232.5t233 157t284.5 57
t284.5 -57t233 -157.5t157.5 -233t57 -283.5q0 -152 -57 -285t-157.5 -233.5t-233 -157.5t-284.5 -57zM1300 -90q135 0 253.5 50.5t208 140t140 208t50.5 254.5q0 135 -50.5 253t-140.5 207.5t-208 140t-253 50.5t-253.5 -50.5t-208 -140t-140 -207.5t-50.5 -253
q0 -136 50.5 -254.5t140 -208t208 -140t253.5 -50.5zM1304 464q-40 0 -69.5 29t-29.5 69q0 41 29.5 70t69.5 29q41 0 70 -29t29 -70q0 -40 -29 -69t-70 -29zM1787 234l-90 52l40 70l90 -52zM1024 959l-52 90l70 40l52 -90zM1363 549l-27 43l289 179l27 -42zM824 1257
l-278 441l68 42l278 -441zM497 1275q-27 59 -27 119q0 77 42.5 148.5t119.5 109.5q76 38 158 38q77 0 142 -34t100 -97zM1260 1044v104h80v-104h-80zM1782 522v80h104v-80h-104zM1576 959l-70 40l52 90l70 -40zM1737 768l-40 70l90 52l40 -70zM1258 1413v226h80v-226h-80z
M1138 1599v80h320v-80h-320zM2103 1275l-535 284q35 63 100.5 97t141.5 34q82 0 158 -38q77 -38 119.5 -109.5t42.5 -148.5q0 -60 -27 -119zM1776 1257l-68 42l278 441l68 -42z" />
    <glyph glyph-name="uni23F1" unicode="&#x23f1;" vert-adv-y="2600" 
d="M1300 -340q-186 0 -347.5 69.5t-283.5 193t-190.5 286t-68.5 348.5t68.5 348.5t190.5 286t283.5 193t347.5 69.5t348 -69.5t283.5 -192.5t190 -286t68.5 -349t-68.5 -349t-190.5 -286t-283.5 -192.5t-347.5 -69.5zM1044 34l-70 40l56 97l70 -40zM816 234l-40 70l97 56
l40 -70zM719 517v80h113v-80h-113zM1258 -23v112h80v-112h-80zM1554 34l-56 97l70 40l56 -97zM873 756l-97 56l40 70l97 -56zM1300 -260q170 0 317 63.5t257.5 175.5t173 260.5t62.5 317.5q0 170 -62 318t-173 260.5t-258 175.5t-317 63q-169 0 -316 -63.5t-258 -176
t-173.5 -260.5t-62.5 -317t62.5 -317t173.5 -260.5t258 -176t316 -63.5zM1298 -171q-150 0 -281 56.5t-229.5 157t-154 232.5t-55.5 282q0 152 55.5 284t154 232.5t229.5 157t281 56.5q151 0 282 -56.5t230 -157t154.5 -232.5t55.5 -284q0 -150 -55.5 -282t-154.5 -232.5
t-230 -157t-282 -56.5zM1298 -91q135 0 251.5 50.5t204 139.5t137 206.5t49.5 251.5q0 135 -49.5 252.5t-137 207t-204 140t-251.5 50.5q-134 0 -250 -50.5t-203.5 -140t-137 -207t-49.5 -252.5q0 -134 49.5 -251.5t137 -206.5t203.5 -139.5t250 -50.5zM1299 463
q-39 0 -66.5 28t-27.5 67t27.5 67t66.5 28t66.5 -28t27.5 -67t-27.5 -67t-66.5 -28zM1030 945l-56 97l70 40l56 -97zM1782 234l-97 56l40 70l97 -56zM1260 557v609h80v-609h-80zM1766 517v80h113v-80h-113zM1725 756l-40 70l97 56l40 -70zM1568 945l-70 40l56 97l70 -40z
M1264 1397v145h80v-145h-80zM1304 1524q-57 0 -97.5 12.5t-40.5 25.5v132q0 20 17 28q12 6 39 12t82 6t82.5 -5.5t38.5 -12.5q17 -11 17 -28v-132q0 -13 -40.5 -25.5t-97.5 -12.5zM1869 1187l-58 54l92 99l58 -54zM2044 1232q-8 -9 -45.5 9t-78.5 58q-40 39 -62.5 76
t-12.5 47l96 102q9 9 22 9q20 0 51 -21.5t58 -48.5q41 -40 59.5 -66t18.5 -45q0 -10 -7 -18z" />
    <glyph glyph-name="uni23F2" unicode="&#x23f2;" vert-adv-y="2600" 
d="M440 -340q-88 0 -131 49t-38 130l58 935q13 213 90.5 390t207.5 306t301.5 199.5t371.5 70.5t371.5 -70.5t301.5 -199.5t207.5 -306t90.5 -390l58 -935q5 -81 -37.5 -130t-131.5 -49h-1720zM956 -123q-132 52 -243.5 141t-192.5 206q-10 15 -6.5 31t17.5 25
q15 9 30.5 5.5t25.5 -17.5q74 -106 175 -187t222 -128q16 -6 22.5 -20.5t1.5 -31.5q-5 -16 -20 -23.5t-32 -0.5zM988 141l85 147l-70 40l-85 -147zM720 379l147 85l-40 70l-147 -85zM1259 68h82v170h-82v-170zM607 720h170v80h-170v-80zM827 986l40 70l-147 85l-40 -70z
M1612 141l70 40l-85 147l-70 -40zM1644 -123q-16 -7 -31.5 0.5t-20.5 23.5q-5 17 1.5 31.5t22.5 20.5q122 47 222.5 128t174.5 187q10 14 25.5 17.5t30.5 -5.5q14 -9 18 -25t-7 -31q-81 -117 -192.5 -206t-243.5 -141zM440 -260h1720q47 0 69.5 24.5t19.5 70.5l-58 933
q-12 198 -83.5 361.5t-190.5 282.5t-276 183.5t-341 64.5t-341 -64.5t-276 -183.5t-190.5 -282.5t-83.5 -361.5l-58 -933q-3 -46 20 -70.5t69 -24.5zM1300 28q152 0 285 57t233.5 157t157.5 233t57 284q0 152 -57 285t-157.5 233.5t-233.5 157.5t-285 57t-285 -57
t-233.5 -157.5t-157.5 -233.5t-57 -285q0 -151 57 -284t157.5 -233t233.5 -157t285 -57zM1300 108q-135 0 -253.5 50.5t-208.5 140t-140.5 207.5t-50.5 253q0 136 50.5 254.5t140.5 208t208.5 140t253.5 50.5t253.5 -50.5t208.5 -140t140.5 -208t50.5 -254.5
q0 -135 -50.5 -253t-140.5 -207.5t-208.5 -140t-253.5 -50.5zM1300 318q-66 0 -119 31.5t-84.5 84.5t-31.5 118v416q0 65 31.5 118t84.5 84.5t119 31.5t119.5 -31.5t84.5 -84.5t31 -118v-416q0 -65 -31 -118t-84.5 -84.5t-119.5 -31.5zM1300 398q66 0 110.5 45t44.5 109v416
q0 65 -44.5 109.5t-110.5 44.5t-110.5 -44.5t-44.5 -109.5v-416q0 -64 44.5 -109t110.5 -45zM1260 534v482h80v-482h-80zM1880 379l40 70l-147 85l-40 -70zM1003 1192l70 40l-85 147l-70 -40zM1259 1282h82v170h-82v-170zM1823 720h170v80h-170v-80zM1597 1192l85 147
l-70 40l-85 -147zM1773 986l147 85l-40 70l-147 -85zM1300 1552l-157 148h314z" />
    <glyph glyph-name="hourglassNotDone" unicode="&#x23f3;" vert-adv-y="2600" 
d="M919 -10q91 72 175 168t137.5 231.5t53.5 324.5q0 36 -11 57.5t-58 47.5q-58 34 -116.5 82t-104 105t-65.5 118q84 0 191 10.5t217.5 28t208 41t162.5 48.5q-10 -139 -85.5 -240t-228.5 -183q-45 -24 -57.5 -47t-12.5 -61q0 -186 38 -318.5t126.5 -228.5t238.5 -173z
M1300 -340q-149 0 -275 10.5t-216.5 29.5t-133.5 44q-20 12 -27.5 24.5t-7.5 35.5v181h78v-249l-51 102q86 -52 243 -75t390 -23t390 23t243 75l-51 -102v249h78v-181q0 -23 -7.5 -35.5t-27.5 -24.5q-43 -25 -133.5 -44t-216.5 -29.5t-275 -10.5zM1300 -131q-130 0 -248.5 8
t-211.5 22.5t-146.5 34t-53.5 41.5q0 23 53.5 42t146 34t211.5 23t249 8q131 0 249.5 -8t211 -23t146 -34t53.5 -42q0 -22 -53.5 -41.5t-146.5 -34t-211.5 -22.5t-248.5 -8zM698 -12q0 275 119 455.5t374 283.5l-3 -57q-252 103 -371 290t-119 477h81q0 -268 108.5 -438
t343.5 -268v-66q-237 -97 -344.5 -260t-107.5 -417h-81zM1821 -12q0 254 -107.5 417t-344.5 260v66q236 98 344 268t108 438h81q0 -290 -119 -477t-371 -290l-3 57q255 -103 374 -283.5t119 -455.5h-81zM1300 1328q-138 0 -264 11.5t-219.5 31.5t-136.5 44
q-23 14 -31.5 29.5t-8.5 43.5v145h78v-222l-58 116q41 -56 212 -87.5t428 -31.5t428.5 31.5t211.5 87.5l-58 -116v222h78v-145q0 -28 -8.5 -43.5t-31.5 -29.5q-42 -24 -136 -44t-219.5 -31.5t-264.5 -11.5zM1300 1527q-130 0 -248.5 8t-211.5 22.5t-146.5 34t-53.5 41.5
q0 23 53.5 42t146 34t211.5 23t249 8q131 0 249.5 -8t211 -23t146 -34t53.5 -42q0 -22 -53.5 -41.5t-146.5 -34t-211.5 -22.5t-248.5 -8z" />
    <glyph glyph-name="pauseButton" unicode="&#x23f8;" vert-adv-y="2600" 
d="M425 -340q-67 0 -116 49t-49 116v1750q0 68 49 116.5t116 48.5h1749q68 0 117 -48t49 -116v-1751q0 -67 -48.5 -116t-116.5 -49h-1750zM944 259h222v882h-222v-882zM1434 259h222v882h-222v-882z" />
    <glyph glyph-name="stopButton" unicode="&#x23f9;" vert-adv-y="2600" 
d="M425 -340q-67 0 -116 49t-49 116v1750q0 68 49 116.5t116 48.5h1749q68 0 117 -48t49 -116v-1751q0 -67 -48.5 -116t-116.5 -49h-1750zM868 267h864v866h-864v-866z" />
    <glyph glyph-name="recordButton" unicode="&#x23fa;" vert-adv-y="2600" 
d="M426 -340q-68 0 -117 48.5t-49 115.5v1751q0 68 49 116.5t116 48.5h1749q68 0 117 -48t49 -116v-1751q0 -67 -48.5 -116t-116.5 -49h-1749zM1299 208q137 0 248.5 66.5t178 178t66.5 247.5t-66.5 247.5t-177.5 178t-247 66.5t-248 -66.5t-178.5 -178t-66.5 -247.5
q0 -135 66.5 -247t178 -178.5t246.5 -66.5z" />
    <glyph glyph-name="circledM" unicode="&#x24c2;" vert-adv-y="2600" 
d="M797 176h117v611q0 54 -1 105.5t-3.5 95t-5.5 72.5h6l331 -884h105l336 882h6q-2 -30 -4.5 -73t-4 -92t-1.5 -98v-619h126v1008h-187l-317 -826h-5l-310 826h-188v-1008zM1300 -340q-171 0 -326 53.5t-285.5 150.5t-226.5 227.5t-149 285.5t-53 323t53 323t149 285.5
t226.5 227.5t285.5 150.5t326 53.5t326 -53.5t285.5 -150.5t226.5 -227.5t149 -285.5t53 -323t-53 -323t-149 -285.5t-226.5 -227.5t-285.5 -150.5t-326 -53.5z" />
    <glyph glyph-name="uni25AA" unicode="&#x25aa;" vert-adv-y="2600" 
d="M1143 410h314q57 0 95 37.5t38 94.5v316q0 57 -38 94.5t-95 37.5h-314q-57 0 -95 -37.5t-38 -94.5v-316q0 -57 38 -94.5t95 -37.5zM1144 442h44v516h-44v-516zM1043 544h515v44h-515v-44zM1143 455q-39 0 -64 25t-25 62v316q0 38 25 62.5t64 24.5h314q39 0 64 -24.5
t25 -62.5v-316q0 -37 -25 -62t-64 -25h-314zM1278 442h44v516h-44v-516zM1043 678h515v44h-515v-44zM1412 442h44v516h-44v-516zM1043 812h515v44h-515v-44z" />
    <glyph glyph-name="uni25AB" unicode="&#x25ab;" vert-adv-y="2600" 
d="M1143 410q-57 0 -95 37.5t-38 94.5v316q0 57 38 94.5t95 37.5h314q57 0 95 -37.5t38 -94.5v-316q0 -57 -38 -94.5t-95 -37.5h-314zM1143 455h314q39 0 64 25t25 62v316q0 38 -25 62.5t-64 24.5h-314q-39 0 -64 -24.5t-25 -62.5v-316q0 -37 25 -62t64 -25z" />
    <glyph glyph-name="playButton" unicode="&#x25b6;" vert-adv-y="2600" 
d="M425 -340q-67 0 -116 49t-49 116v1750q0 68 49 116.5t116 48.5h1749q68 0 117 -48t49 -116v-1751q0 -67 -48.5 -116t-116.5 -49h-1750zM985 254l756 446l-756 446v-892z" />
    <glyph glyph-name="reverseButton" unicode="&#x25c0;" vert-adv-y="2600" 
d="M425 -340q-67 0 -116 49t-49 116v1751q0 68 49 116t117 48h1749q68 0 116.5 -48.5t48.5 -116.5v-1750q0 -67 -48.5 -116t-116.5 -49h-1750zM1615 254v892l-756 -446z" />
    <glyph glyph-name="whiteMediumSquare" unicode="&#x25fb;" vert-adv-y="2600" 
d="M624 -90h1353q53 0 90.5 37.5t37.5 89.5v1326q0 52 -37.5 89.5t-90.5 37.5h-1353q-53 0 -91 -37t-38 -90v-1326q0 -52 38.5 -89.5t90.5 -37.5zM624 -10q-19 0 -34 14.5t-15 32.5v1326q0 19 15 33t34 14h1353q20 0 34 -14t14 -33v-1326q0 -19 -14 -33t-34 -14h-1353z" />
    <glyph glyph-name="blackMediumSquare" unicode="&#x25fc;" vert-adv-y="2600" 
d="M624 -90h1353q53 0 90.5 37.5t37.5 89.5v1326q0 52 -37.5 89.5t-90.5 37.5h-1353q-53 0 -91 -37t-38 -90v-1326q0 -52 38.5 -89.5t90.5 -37.5zM756 -50h70v1500h-70v-1500zM535 156h1533v70h-1533v-70zM1011 -50h70v1500h-70v-1500zM535 411h1533v70h-1533v-70zM624 -10
q-19 0 -34 14.5t-15 32.5v1326q0 19 15 33t34 14h1353q20 0 34 -14t14 -33v-1326q0 -19 -14 -33t-34 -14h-1353zM535 665h1533v70h-1533v-70zM1265 -50h70v1500h-70v-1500zM1520 -50h70v1500h-70v-1500zM535 920h1533v70h-1533v-70zM1775 -50h70v1500h-70v-1500zM535 1175
h1533v70h-1533v-70z" />
    <glyph glyph-name="whiteMediumSmallSquare" unicode="&#x25fd;" vert-adv-y="2600" 
d="M897 170h806q62 0 102 40.5t40 101.5v776q0 62 -40 102t-102 40h-806q-61 0 -101.5 -40t-40.5 -102v-776q0 -61 40.5 -101.5t101.5 -40.5zM897 250q-27 0 -44.5 17.5t-17.5 44.5v776q0 27 17.5 44.5t44.5 17.5h806q27 0 44.5 -17.5t17.5 -44.5v-776q0 -27 -17.5 -44.5
t-44.5 -17.5h-806z" />
    <glyph glyph-name="blackMediumSmallSquare" unicode="&#x25fe;" vert-adv-y="2600" 
d="M897 170h806q62 0 102 40.5t40 101.5v776q0 62 -40 102t-102 40h-806q-61 0 -101.5 -40t-40.5 -102v-776q0 -61 40.5 -101.5t101.5 -40.5zM1006 200h80v995h-80v-995zM783 408h1034v80h-1034v-80zM897 250q-27 0 -44.5 17.5t-17.5 44.5v776q0 27 17.5 44.5t44.5 17.5h806
q27 0 44.5 -17.5t17.5 -44.5v-776q0 -27 -17.5 -44.5t-44.5 -17.5h-806zM783 660h1034v80h-1034v-80zM1260 200h80v995h-80v-995zM1514 200h80v995h-80v-995zM783 913h1034v80h-1034v-80z" />
    <glyph glyph-name="sun" unicode="&#x2600;" vert-adv-y="2600" 
d="M1115 -340q-31 0 -51 20.5t-26 54.5l-82 442l-405 -92q-46 -10 -76 10t-36.5 56.5t19.5 75.5l228 343l-366 231q-39 25 -47.5 61.5t11 68t64.5 39.5l421 73l-95 431q-10 45 7.5 73.5t51 34t70.5 -20.5l360 -243l240 373q14 23 33.5 36t41.5 13q31 0 52 -22.5t28 -56.5
l81 -425l438 81q59 11 83.5 -30t-10.5 -93l-237 -347l368 -238q39 -25 47 -61t-11.5 -66.5t-64.5 -39.5l-420 -77l92 -433q8 -34 -11.5 -60.5t-51 -34.5t-61.5 12l-358 241l-245 -378q-33 -52 -82 -52zM1129 -246l247 382l97 30l357 -241q6 -4 10 -3t2 10l-92 437l46 71
l442 81q12 2 12.5 7.5t-11.5 12.5l-372 241l-36 87l242 354q9 12 -8 10l-406 -74l-97 56l-83 432q-1 5 -3.5 5.5t-4.5 -3.5l-237 -368l-118 -26l-354 237q-5 3 -7.5 1.5t-1.5 -8.5l97 -439l-44 -78l-446 -77q-10 -1 -10 -7.5t10 -13.5l390 -246l15 -79l-241 -364
q-9 -13 -7 -17t14 -1l428 97l72 -52l85 -453q2 -7 5.5 -7.5t7.5 6.5zM1301 75q-131 0 -245.5 48.5t-200.5 134.5t-134.5 200.5t-48.5 245.5t48.5 245.5t134.5 200.5t200.5 134.5t245.5 48.5t245.5 -48.5t200.5 -134.5t134.5 -200.5t48.5 -245.5t-48.5 -245.5t-134.5 -200.5
t-200.5 -134.5t-245.5 -48.5zM1301 155q114 0 213.5 42.5t175 118t118 175t42.5 213.5t-42.5 213.5t-118 175t-175 118t-213.5 42.5t-213.5 -42.5t-175 -118t-118 -175t-42.5 -213.5t42.5 -213.5t118 -175t175 -118t213.5 -42.5z" />
    <glyph glyph-name="uni2601" unicode="&#x2601;" vert-adv-y="2600" 
d="M1683 -140q-208 0 -360 140q-104 -49 -228 -49q-100 0 -191 33.5t-154 94.5q-84 -28 -175 -28q-122 0 -223 46.5t-160.5 125.5t-59.5 175q0 90 51 165t134 123t179 56q6 105 61 190t143 135.5t194 50.5q17 0 34.5 -1.5t33.5 -4.5q44 128 132.5 224t208 150t254.5 54
q129 0 242.5 -48.5t199.5 -134.5t134.5 -199.5t48.5 -242.5q0 -35 -3.5 -70t-11.5 -69q86 -15 154 -66.5t107.5 -127.5t39.5 -166q0 -100 -49.5 -183t-132 -132.5t-183.5 -49.5h-12q-75 -91 -182 -141t-226 -50zM1683 -60q112 0 210 51t162 143q16 -2 26 -2.5t22 -0.5
q79 0 143.5 38.5t103 103.5t38.5 143q0 86 -44.5 154t-115.5 107.5t-151 39.5q9 38 17 89.5t8 108.5q0 113 -42.5 211.5t-117.5 173.5t-173.5 117.5t-211.5 42.5q-117 0 -221 -46.5t-181.5 -129.5t-115.5 -193q112 -44 183 -143.5t71 -218.5h-80q0 83 -43 153.5t-115.5 113
t-160.5 42.5t-160.5 -43t-115.5 -115.5t-43 -160.5v-51q-111 -8 -192.5 -46.5t-126 -97t-44.5 -126.5q0 -73 49 -133.5t131.5 -97t182.5 -36.5q107 0 198 44q49 -67 134.5 -105.5t187.5 -38.5q140 0 242 69q138 -160 346 -160z" />
    <glyph glyph-name="uni2602" unicode="&#x2602;" vert-adv-y="2600" 
d="M868 571q-70 78 -148 117t-163 39q-70 0 -148.5 -25t-152.5 -76l-2 36t-1 35q0 189 81.5 351t225.5 284t334 190t406 68t406 -68t334 -190t225.5 -284t81.5 -351q0 -17 -0.5 -35t-2.5 -36q-74 51 -152.5 76t-148.5 25q-85 0 -162.5 -39t-148.5 -117q-66 101 -176.5 153
t-255.5 52t-255.5 -52t-176.5 -153zM1160 -340q-77 0 -137 29.5t-94 82t-34 120.5q0 74 32.5 116t86.5 42q47 0 79 -30t32 -89q0 -37 30 -37q33 0 33 28v276h224v-310q0 -101 -69.5 -164.5t-182.5 -63.5zM1160 -280q86 0 136.5 45.5t50.5 122.5v250h-94v-217
q0 -38 -27 -62.5t-70 -24.5q-44 0 -70 26t-26 71q0 35 -12 47t-34 12q-54 0 -54 -98q0 -77 55 -124.5t145 -47.5zM1260 165v651h80v-651h-80zM861 689q162 167 439 167t439 -167q139 118 304 118q50 0 105.5 -11.5t116.5 -35.5q-19 161 -100.5 297.5t-211.5 239t-296.5 159
t-356.5 56.5t-356.5 -56.5t-296.5 -159t-211 -239t-101 -297.5q61 24 117 35.5t105 11.5q165 0 304 -118zM824 653q0 173 56.5 346.5t158 325t236.5 257.5h50q135 -106 236.5 -257.5t158 -325t56.5 -346.5h-80q0 156 -49.5 313t-138.5 296t-208 239q-119 -100 -208 -239
t-138.5 -296t-49.5 -313h-80zM1260 1528v212h80v-212h-80z" />
    <glyph glyph-name="uni2603" unicode="&#x2603;" vert-adv-y="2600" 
d="M1300 -340q-130 0 -244.5 41t-201.5 113.5t-136 168.5t-49 206q0 123 64.5 233t179.5 185q-107 135 -107 305q0 107 42.5 200.5t115.5 160.5h128q-92 -55 -149 -151t-57 -210q0 -94 41 -178.5t117 -146.5q-138 -60 -216.5 -167t-78.5 -231q0 -123 74.5 -226.5
t199.5 -165.5t277 -62t277 62t199.5 165.5t74.5 226.5q0 124 -78.5 231t-216.5 167q77 62 117.5 146.5t40.5 178.5q0 114 -57 210t-149 151h128q73 -67 115.5 -160.5t42.5 -200.5q0 -170 -107 -305q115 -75 179.5 -185t64.5 -233q0 -110 -49 -206t-136 -168.5t-201 -113.5
t-245 -41zM771 388l-231 185q-20 17 -20 36q0 18 13 30t29 12q18 0 32 -12l64 -51v51q0 14 10 24t24 10q15 0 25 -10t10 -24v-107l85 -68zM655 849q-19 0 -33 14t-14 33q0 20 14 33.5t33 13.5q20 0 33.5 -13.5t13.5 -33.5q0 -19 -13.5 -33t-33.5 -14zM522 995
q-21 0 -36.5 15.5t-15.5 36.5q0 20 15.5 35.5t36.5 15.5t36.5 -15.5t15.5 -35.5q0 -21 -15.5 -36.5t-36.5 -15.5zM646 1162q-21 0 -35.5 14.5t-14.5 35.5q0 20 14.5 34.5t35.5 14.5q20 0 34.5 -14.5t14.5 -34.5q0 -21 -14.5 -35.5t-34.5 -14.5zM543 1342q-21 0 -36.5 15.5
t-15.5 36.5t15.5 36.5t36.5 15.5q20 0 35.5 -15.5t15.5 -36.5t-15.5 -36.5t-35.5 -15.5zM1300 684q-63 0 -126 35l29 50q44 -25 97 -25t97 25l29 -50q-63 -35 -126 -35zM1090 908q-18 0 -31 17t-13 41t13 41t31 17t31 -17t13 -41t-13 -41t-31 -17zM1300 816q-6 0 -18 20.5
t-22 45t-10 37.5q0 7 15.5 12t34.5 5q20 0 35 -5t15 -12q0 -13 -10 -37.5t-22 -45t-18 -20.5zM1829 388l-41 76l85 68v107q0 14 10 24t25 10q14 0 24 -10t10 -24v-51l64 51q14 12 32 12q17 0 29.5 -12t12.5 -30q0 -19 -20 -36zM1510 908q-18 0 -31 17t-13 41t13 41t31 17
t31 -17t13 -41t-13 -41t-31 -17zM1419 1225q-258 0 -396.5 21.5t-138.5 61.5q0 27 63 43t146 17v333q0 15 62.5 27t136.5 12q72 0 139.5 -11.5t110.5 -29.5t41 -36l-37 -315q178 -13 178 -68q0 -31 -65 -43t-240 -12zM2036 839q-19 0 -33 14t-14 33q0 20 14 33.5t33 13.5
q20 0 33.5 -13.5t13.5 -33.5q0 -19 -13.5 -33t-33.5 -14zM1982 1054q-21 0 -36.5 15.5t-15.5 36.5q0 20 15.5 35.5t36.5 15.5t36.5 -15.5t15.5 -35.5q0 -21 -15.5 -36.5t-36.5 -15.5zM1905 1392q-20 0 -35.5 15.5t-15.5 36.5t15.5 36.5t35.5 15.5q21 0 36.5 -15.5
t15.5 -36.5t-15.5 -36.5t-36.5 -15.5zM2080 1247q-20 0 -34.5 14.5t-14.5 35.5q0 20 14.5 34.5t34.5 14.5q21 0 35.5 -14.5t14.5 -34.5q0 -21 -14.5 -35.5t-35.5 -14.5z" />
    <glyph glyph-name="uni2604" unicode="&#x2604;" vert-adv-y="2600" 
d="M796 -290q-93 0 -182.5 34.5t-161.5 106.5q-70 71 -106 160.5t-36 182.5q0 95 35 185t108 163l978 979l57 -57l-978 -978q-120 -120 -120 -292q0 -81 30.5 -155t87.5 -131q118 -118 288 -118q171 0 290 119l619 620l57 -57l-620 -620q-73 -73 -162.5 -107.5t-183.5 -34.5
zM796 -41q-67 0 -121 32.5t-86 87t-32 120.5q0 67 32 121t86 86.5t121 32.5t121 -32.5t86 -86.5t32 -121q0 -66 -32 -120.5t-86 -87t-121 -32.5zM796 39q67 0 113 46.5t46 113.5q0 68 -46 114t-113 46t-113 -46t-46 -114q0 -67 46 -113.5t113 -46.5zM852 158q-18 0 -28 11.5
t-10 28.5q0 18 13 31l232 232l55 -58l-231 -231q-14 -14 -31 -14zM1185 191l-55 58l315 314l56 -52zM885 491l-56 57l633 633l56 -57zM1205 491l-57 60l679 672l57 -53zM1856 566l-56 57l267 268l57 -58zM1597 1578l-54 58l57 54l57 -57zM2232 944l-56 56l57 58l57 -57z" />
    <glyph glyph-name="uni2121" unicode="&#x260e;" vert-adv-y="2600" 
d="M714 70q-162 0 -232.5 41t-70.5 136q0 12 3.5 32.5t13.5 70.5l133 642q17 84 54 119t107 53l36 9q62 16 85 44t30 87l18 167h291v-281h236v281h291l18 -167q7 -59 30 -87t85 -44l36 -9q71 -18 108 -53t54 -119l133 -642q11 -50 13.5 -70.5t2.5 -32.5q0 -95 -70 -136
t-233 -41h-1172zM589 -340q-80 0 -129 46t-49 123v418l80 -20v-398q0 -43 28 -66t70 -23h1422q42 0 70 23t28 66v380l80 29v-409q0 -77 -48.5 -123t-129.5 -46h-1422zM885 419h151q38 0 41 27l12 86q2 14 -8 24.5t-24 10.5h-156q-28 0 -31 -26l-14 -85q-2 -15 6.5 -26
t22.5 -11zM923 619h148q27 0 32 27l11 87q2 14 -7.5 24t-23.5 10h-145q-25 0 -30 -26l-15 -86q-2 -13 7 -24.5t23 -11.5zM1208 419h184q14 0 23.5 9.5t8.5 22.5l-4 86q-1 13 -10.5 21.5t-20.5 8.5h-178q-11 0 -20 -8.5t-10 -21.5l-4 -86q-1 -13 8.5 -22.5t22.5 -9.5z
M955 820h139q28 0 31 28l11 94q2 14 -7.5 24t-23.5 10h-133q-26 0 -30 -23l-17 -96q-2 -14 7.5 -25.5t22.5 -11.5zM797 279q-30 0 -30 31v88q0 9 1.5 22.5t4.5 26.5l119 559q5 23 28 23h761q24 0 29 -23l118 -559q3 -13 4.5 -26.5t1.5 -22.5v-88q0 -31 -30 -31h-1007z
M1217 619h166q13 0 22 10t8 22l-5 86q-1 14 -10 22t-21 8h-154q-12 0 -20.5 -8t-9.5 -22l-5 -86q-1 -12 7.5 -22t21.5 -10zM714 150h1172q125 0 174 19t49 80q0 9 -2 23.5t-11 56.5l-135 647q-12 57 -31 78.5t-71 32.5l-36 8q-82 18 -121 62.5t-50 138.5l-11 100h-153v-281
h-376v281h-153l-11 -100q-10 -94 -49.5 -138.5t-120.5 -62.5l-36 -8q-52 -12 -71.5 -33t-31.5 -78l-134 -647q-9 -42 -11.5 -56.5t-2.5 -23.5q0 -61 49.5 -80t173.5 -19zM1564 419h151q15 0 23.5 11t6.5 26l-14 85q-3 26 -32 26h-156q-13 0 -23 -10.5t-8 -24.5l12 -86
q3 -27 40 -27zM1228 820h144q14 0 23.5 9.5t8.5 23.5l-5 94q-2 29 -32 29h-134q-29 0 -31 -29l-5 -94q-1 -14 8 -23.5t23 -9.5zM1529 619h148q15 0 24 11.5t7 24.5l-15 86q-5 26 -31 26h-145q-13 0 -22 -10t-8 -24l11 -87q3 -27 31 -27zM1506 820h139q14 0 23.5 11.5
t7.5 25.5l-17 96q-4 23 -31 23h-133q-13 0 -22 -10t-8 -24l11 -94q3 -28 30 -28zM430 762q-178 0 -271.5 68t-93.5 195q0 185 87 320t250 222.5t390.5 130t507.5 42.5q281 0 508 -42.5t390 -130t250 -222.5t87 -320q0 -127 -93 -195t-272 -68q-49 0 -77.5 2.5t-63.5 9.5
l2 85q28 -10 58 -13.5t80 -3.5q146 0 216 53t70 130q0 168 -80.5 288.5t-232 197t-364.5 113t-478 36.5t-478 -36.5t-364.5 -113t-232 -197t-80.5 -288.5q0 -77 70.5 -130t215.5 -53q50 0 80.5 3.5t58.5 13.5l1 -85q-34 -7 -63 -9.5t-78 -2.5zM1147 1273l1 69q29 2 70.5 2.5
t81.5 0.5t82 -0.5t71 -2.5v-69q-28 2 -71.5 2h-81.5h-81t-72 -2zM2495 1153l8 -79q-19 -11 -75 -24t-128.5 -25t-144 -19.5t-121.5 -7.5q-18 0 -31 1t-21 4l-15 77q9 -1 21 -2t24 -1q51 0 121.5 7t143.5 18.5t132 24.5t86 26zM105 1153q27 -13 86.5 -26t132.5 -24.5
t143.5 -18.5t120.5 -7q13 0 25 1t21 2l-15 -77q-8 -3 -21.5 -4t-31.5 -1q-50 0 -121.5 7.5t-144 19.5t-128 25t-74.5 24z" />
    <glyph glyph-name="checkBoxWithCheck" unicode="&#x2611;" vert-adv-y="2600" 
d="M951 -31q-43 0 -77 24t-47 64l-249 753q-6 18 -6 36q0 50 37 90t92 40q42 0 75.5 -23.5t46.5 -63.5l177 -520l798 1012q19 23 45.5 36t56.5 13q56 0 93.5 -37t37.5 -93q0 -47 -28 -81l-950 -1200q-41 -50 -102 -50zM426 -340q-68 0 -117 48.5t-49 115.5v1751
q0 68 49 116.5t116 48.5h1750q68 0 116.5 -48.5t48.5 -116.5v-1750q0 -67 -48.5 -116t-116.5 -49h-1749zM426 -260h1749q35 0 60 25.5t25 59.5v1750q0 35 -25 60t-60 25h-1750q-34 0 -59.5 -25t-25.5 -60v-1751q0 -34 25.5 -59t60.5 -25z" />
    <glyph glyph-name="uni2614" unicode="&#x2614;" vert-adv-y="2600" 
d="M868 521q-70 78 -148 117t-163 39q-70 0 -148.5 -25t-152.5 -76l-2 36t-1 35q0 189 81.5 351t225.5 284t334 190t406 68t406 -68t334 -190t225.5 -284t81.5 -351q0 -17 -0.5 -35t-2.5 -36q-74 51 -152.5 76t-148.5 25q-85 0 -162.5 -39t-148.5 -117q-66 101 -176.5 153
t-255.5 52t-255.5 -52t-176.5 -153zM1160 -340q-77 0 -137 29.5t-94 82t-34 120.5q0 74 32.5 116t86.5 42q47 0 79 -30t32 -89q0 -37 30 -37q33 0 33 28v256h224v-290q0 -101 -69.5 -164.5t-182.5 -63.5zM1160 -280q86 0 136.5 45.5t50.5 122.5v230h-94v-197
q0 -38 -27 -62.5t-70 -24.5q-44 0 -70 26t-26 71q0 35 -12 47t-34 12q-54 0 -54 -98q0 -77 55 -124.5t145 -47.5zM684 836q-42 0 -65 23t-23 63q0 49 38 105l50 75l50 -75q20 -30 28.5 -55.5t8.5 -49.5q0 -40 -22.5 -63t-64.5 -23zM1260 145v621h80v-621h-80zM549 1474
q-42 0 -65 23t-23 63q0 49 38 105l50 75l50 -75q20 -30 28.5 -55.5t8.5 -49.5q0 -40 -22.5 -63t-64.5 -23zM861 639q162 167 439 167t439 -167q139 118 304 118q50 0 105.5 -11.5t116.5 -35.5q-19 161 -100.5 297.5t-211.5 239t-296.5 159t-356.5 56.5t-356.5 -56.5
t-296.5 -159t-211 -239t-101 -297.5q61 24 117 35.5t105 11.5q165 0 304 -118zM824 603q0 173 56.5 346.5t158 325t236.5 257.5h50q135 -106 236.5 -257.5t158 -325t56.5 -346.5h-80q0 156 -49.5 313t-138.5 296t-208 239q-119 -100 -208 -239t-138.5 -296t-49.5 -313h-80z
M1300 944q-42 0 -65 23t-23 63q0 49 38 105l50 75l50 -75q38 -56 38 -105q0 -40 -23 -63t-65 -23zM1260 1478v212h80v-212h-80zM1916 836q-42 0 -64.5 23t-22.5 63q0 24 8.5 49.5t28.5 55.5l50 75l50 -75q38 -56 38 -105q0 -40 -23 -63t-65 -23zM2051 1474q-42 0 -64.5 23
t-22.5 63q0 24 8.5 49.5t28.5 55.5l50 75l50 -75q38 -56 38 -105q0 -40 -23 -63t-65 -23z" />
    <glyph glyph-name="uni2615" unicode="&#x2615;" vert-adv-y="2600" 
d="M1232 -111q-330 0 -488 248t-158 753q0 69 67.5 127.5t184 99.5t261.5 55l64 -76q-130 -7 -243.5 -38t-183.5 -75.5t-70 -92.5q0 -35 45.5 -66.5t125 -56.5t181.5 -39t214 -14q113 0 214.5 14t181 39t125 56.5t45.5 66.5q0 51 -76.5 97t-199 77t-260.5 34l11 79
q168 -4 305 -44t218.5 -103.5t81.5 -139.5q0 -508 -158.5 -754.5t-487.5 -246.5zM1232 -340q-187 0 -347.5 29.5t-280.5 82t-187 122.5t-67 151q0 85 77.5 155t255.5 137l32 -74q-151 -56 -218 -108.5t-67 -109.5q0 -61 63.5 -116.5t175 -97.5t256 -66.5t307.5 -24.5
t307.5 24.5t256 66.5t175 97.5t63.5 116.5q0 57 -67 109.5t-218 108.5l32 74q179 -67 256 -137t77 -155q0 -81 -67 -151t-187 -122.5t-280.5 -82t-347.5 -29.5zM955 236q-11 -6 -22.5 -2.5t-17.5 14.5q-33 62 -52.5 124.5t-19.5 121.5q0 31 29 31q13 0 21.5 -8t9.5 -21
q3 -53 18 -108t46 -110q16 -28 -12 -42zM1232 -31q181 0 301.5 85t185.5 260.5t76 446.5q-81 -58 -229 -92.5t-334 -34.5t-334 34.5t-229 92.5q12 -271 76.5 -446.5t185.5 -260.5t301 -85zM1765 -59q-13 0 -20.5 8.5t-7.5 20.5t11 23q23 23 41 48t33 55q9 18 29 18
q11 0 19.5 -7.5t8.5 -21.5q0 -19 -19.5 -53.5t-46.5 -62.5t-48 -28zM1229 663l-472 106q37 31 111 58.5t172.5 44.5t207.5 17q162 0 278 -35.5t171 -81.5zM1808 390v100q166 3 254 40.5t88 107.5q0 68 -75.5 98t-242.5 30v100q200 0 309 -59t109 -169q0 -112 -119.5 -177.5
t-322.5 -70.5zM1325 968q-137 45 -216 115.5t-79 166.5q0 67 34.5 113.5t89.5 80t116.5 58.5t116.5 47.5t89.5 47.5t34.5 59q0 19 -10 38t-39 46q126 0 203 -63t77 -163q0 -71 -33 -115.5t-85 -71.5t-110 -46t-110 -37t-85 -43.5t-33 -68.5q0 -25 7 -55.5t32 -108.5z
M1203 1086q-2 11 -3 21.5t-1 20.5q0 61 33.5 99t86.5 62.5t112 44t112 41.5t86.5 55t33.5 86q0 41 -25 77t-60 49q1 -4 1 -8v-9q0 -52 -47.5 -88.5t-117 -65t-139.5 -58t-117.5 -68t-47.5 -95.5q0 -45 33 -83.5t88 -59.5z" />
    <glyph glyph-name="uni2618" unicode="&#x2618;" vert-adv-y="2600" 
d="M1894 88q-248 0 -442 247l-44 56q-58 74 -81.5 94t-46.5 20q-27 0 -58 -13.5t-96 -54.5l-71 -45q-108 -68 -223 -106t-216 -38q-150 0 -233 75t-83 211q0 158 120 271q-59 79 -59 176q0 84 39 151t106.5 106t150.5 39q159 0 308 -111q-19 56 -29.5 118.5t-10.5 114.5
q0 100 38 176.5t104 120.5t149 44q74 0 140 -31.5t112 -86.5q38 29 85 44.5t94 15.5q89 0 159.5 -42t111.5 -116t41 -169q0 -88 -27.5 -161t-86.5 -141q68 15 138 15q141 0 229 -80.5t88 -210.5q0 -71 -28 -129.5t-80 -95.5q26 -39 39 -80t13 -83q0 -89 -44 -157t-123 -106
t-183 -38zM1496 -340q-126 73 -194 229.5t-68 374.5v57q0 57 2.5 116.5t4.5 98.5h84q-5 -45 -8 -98.5t-3 -128.5v-77q0 -176 59.5 -309.5t165.5 -195.5zM1894 168q123 0 196.5 60.5t73.5 160.5q0 90 -78 182q62 23 98 78t36 128q0 101 -65 156t-183 55q-76 0 -159 -25.5
t-170 -82.5l-203 -134l-45 66l212 140q147 98 209.5 192t62.5 211q0 110 -64 178.5t-168 68.5q-49 0 -95.5 -18t-98.5 -64q-37 66 -100 103t-137 37q-91 0 -151 -73t-60 -188q0 -96 36 -205t108 -207l116 -157l-63 -49l-115 156q-96 131 -207.5 195.5t-222.5 64.5
q-92 0 -154 -62t-62 -154q0 -55 22.5 -101t56.5 -81q-69 -58 -104.5 -121t-35.5 -142q0 -208 236 -208q92 0 194.5 34.5t202.5 97.5l71 45q73 46 114.5 63t81.5 17q48 0 85.5 -29t104.5 -115l44 -56q88 -112 180.5 -164.5t199.5 -52.5z" />
    <glyph glyph-name="indexPointingUp" unicode="&#x261d;" vert-adv-y="2600" 
d="M1307 -340q-347 0 -510.5 199.5t-163.5 623.5l82 -44q0 -361 143 -530t449 -169q293 0 455 142t162 385q0 161 -86 243.5t-255 82.5q-183 0 -292 -15.5t-157.5 -49.5t-48.5 -92q0 -60 53 -87t172 -29q109 -1 175.5 -15.5t114.5 -52.5t103 -111l-65 -47q-45 62 -82.5 92.5
t-93 41t-154.5 12.5q-154 3 -228.5 51t-74.5 145q0 65 31.5 110t100.5 73t180 41t271 13q131 0 224 -47t142.5 -137.5t49.5 -222.5q0 -185 -83.5 -321t-239.5 -210.5t-374 -74.5zM809 420q59 0 94.5 28.5t45.5 68.5l-25 257q-3 33 -38.5 55.5t-85.5 22.5q-63 0 -95.5 -38
t-28.5 -109l8 -156q3 -64 34.5 -96.5t90.5 -32.5zM1444 -27l-74 10q11 89 58 162t125 111l39 -63q-64 -30 -100.5 -90.5t-47.5 -129.5zM809 340q-62 0 -106.5 24.5t-69.5 70.5t-29 112l-8 159q-5 99 52 162.5t154 63.5q32 0 65 -9t57 -28q12 73 63.5 116t133.5 43
q50 0 85.5 -14t61.5 -39q24 57 70 89t114 32q109 0 156.5 -60.5t52.5 -163.5l13 -259l-75 -6l-12 251q-4 78 -33.5 120.5t-102.5 42.5q-66 0 -98 -53t-25 -136l20 -240h-80l-18 216q-6 72 -37.5 106t-91.5 34q-67 0 -97.5 -42.5t-22.5 -127.5l21 -215q5 -51 18 -75.5
t41 -35.5l-16 -74q-41 11 -68 33q-26 -42 -71.5 -69.5t-116.5 -27.5zM1982 359l-80 70v1103q0 61 -32.5 94.5t-88.5 33.5q-57 0 -88 -34t-31 -95v-679l-80 197v488q0 90 55.5 146.5t143.5 56.5t144.5 -56.5t56.5 -145.5v-1179z" />
    <glyph glyph-name="uni2620" unicode="&#x2620;" vert-adv-y="2600" 
d="M1194 -118q-85 0 -136 67h-7h-7q-71 0 -121.5 51t-50.5 123q0 23 -17.5 46t-73.5 61q-79 55 -108.5 105t-29.5 129q0 38 12 71q-40 117 -40 243q0 145 51.5 268t144.5 214.5t217.5 142t271.5 50.5t271.5 -50.5t217.5 -142t144.5 -214.5t51.5 -268q0 -126 -40 -243
q12 -33 12 -71q0 -79 -29 -129t-109 -105q-55 -38 -73 -61t-18 -46q0 -72 -50.5 -123t-121.5 -51h-7h-7q-51 -67 -136 -67q-59 0 -106 36q-47 -36 -106 -36zM582 -340q-67 0 -110.5 44t-53.5 117q-74 10 -119 53.5t-45 109.5q0 62 50 102.5t140 53.5l7 1q59 8 85.5 18
t46.5 30l145 143l53 -58l-142 -141q-30 -30 -68.5 -46t-107.5 -26l-7 -1q-122 -18 -122 -76q0 -45 39 -65.5t116 -25.5q5 -83 27.5 -118t65.5 -35q28 0 45.5 26.5t24.5 87.5l1 8q10 76 24 113.5t42 66.5l152 153l53 -60l-149 -149q-18 -18 -26 -43.5t-16 -90.5l-1 -8
q-11 -90 -48.5 -137t-101.5 -47zM1110 -49l-60 40v130q0 35 30 35t30 -35v-170zM1270 -49v170q0 35 30 35t30 -35v-170h-60zM1490 -49v170q0 35 30 35t30 -35v-130zM997 510q-58 0 -98 43t-40 106q0 66 44 114t106 48q58 0 98 -43t40 -106q0 -64 -43.5 -113t-106.5 -49z
M1248 337q-37 0 -37 53q0 30 11.5 71.5t31.5 73t46 31.5t46 -31.5t31.5 -73t11.5 -71.5q0 -53 -37 -53q-12 0 -25 6.5t-27 16.5q-14 -10 -27 -16.5t-25 -6.5zM1194 -38q30 0 58.5 12t47.5 32q20 -20 48 -32t58 -12q33 0 59.5 21.5t36.5 56.5q38 -11 54 -11q38 0 65 27.5
t27 66.5q0 54 28 93.5t92 77.5t86.5 73.5t22.5 96.5q0 36 -17 69q45 122 45 245q0 171 -79 305.5t-215.5 212t-310.5 77.5t-311 -77.5t-215.5 -212t-78.5 -305.5q0 -123 45 -245q-17 -33 -17 -69q0 -61 22.5 -96.5t86.5 -73.5q65 -38 92.5 -77.5t27.5 -93.5q0 -39 27 -66.5
t65 -27.5q16 0 54 11q10 -35 36.5 -56.5t59.5 -21.5zM716 1079l-133 132q-20 20 -46.5 30t-85.5 18l-7 1q-90 13 -140 53.5t-50 102.5q0 66 45 109.5t119 53.5q10 74 53.5 117.5t110.5 43.5q64 0 101.5 -47t48.5 -137l1 -8q8 -65 16 -90.5t26 -43.5l129 -129l-53 -60
l-132 133q-28 29 -42 66.5t-24 113.5l-1 8q-7 62 -24.5 88t-45.5 26q-43 0 -65.5 -35t-27.5 -118q-77 -4 -116 -25t-39 -66q0 -58 122 -76l7 -1q69 -10 107.5 -26t68.5 -46l130 -130zM2018 -340q-64 0 -101.5 47t-48.5 137l-1 8q-8 65 -16 90.5t-26 43.5l-149 149l53 60
l152 -153q29 -29 42.5 -66.5t23.5 -113.5l1 -8q8 -61 25 -87.5t45 -26.5q43 0 65.5 35t27.5 118q77 5 116 25.5t39 65.5q0 58 -122 76l-7 1q-69 10 -107.5 26t-68.5 46l-142 141l53 58l145 -143q20 -20 47 -30t85 -18l7 -1q90 -13 140 -53.5t50 -102.5q0 -66 -45 -109.5
t-119 -53.5q-10 -73 -53 -117t-111 -44zM1603 510q-63 0 -106.5 49t-43.5 113q0 63 40 106t98 43q62 0 106 -48t44 -114q0 -63 -40 -106t-98 -43zM1884 1079l-53 58l130 130q30 30 68.5 46t107.5 26l7 1q122 18 122 76q0 45 -39 66t-116 25q-5 83 -27.5 118t-65.5 35
q-28 0 -45 -26t-25 -88l-1 -8q-10 -76 -23.5 -113.5t-42.5 -66.5l-132 -133l-53 60l129 129q18 18 26 43.5t16 90.5l1 8q11 90 48.5 137t101.5 47q68 0 111 -43.5t53 -117.5q74 -10 119 -53.5t45 -109.5q0 -62 -50 -102.5t-140 -53.5l-7 -1q-58 -8 -85 -18t-47 -30z" />
    <glyph glyph-name="uni2622" unicode="&#x2622;" vert-adv-y="2600" 
d="M1300 -340q-213 0 -401.5 81.5t-332 225.5t-225 332.5t-81.5 401.5t81.5 401t225 331.5t332 225t401.5 81.5t401.5 -81.5t332 -225t225 -331.5t81.5 -401t-81.5 -401.5t-225 -332.5t-332 -225.5t-401.5 -81.5zM1298 -119q-111 0 -211 26t-185 76l293 507q50 -26 105 -26
t105 26l293 -507q-85 -50 -185.5 -76t-214.5 -26zM487 703q0 135 48.5 264.5t137.5 239.5t211 185l294 -506q-48 -29 -76 -77t-30 -106h-585zM1299 577q-48 0 -82 34t-34 82t34 82t82 34q50 0 84 -34t34 -82t-34 -82t-84 -34zM1300 -260q197 0 370.5 75.5t306 208t208 306.5
t75.5 371t-75.5 370.5t-208 306t-306 207.5t-370.5 75t-370.5 -75t-306 -207.5t-208 -306t-75.5 -370.5t75.5 -371t208 -306.5t306 -208t370.5 -75.5zM1528 703q-2 58 -30 106t-76 77l294 506q122 -75 211 -185t137.5 -239.5t48.5 -264.5h-585z" />
    <glyph glyph-name="uni2623" unicode="&#x2623;" vert-adv-y="2600" 
d="M1300 -340q-213 0 -401.5 81.5t-332 225.5t-225 332.5t-81.5 401.5t81.5 401t225 331.5t332 225t401.5 81.5t401.5 -81.5t332 -225t225 -331.5t81.5 -401t-81.5 -401.5t-225 -332.5t-332 -225.5t-401.5 -81.5zM1139 350q-88 37 -144 114.5t-63 171.5l60 2q6 -76 51 -138
t118 -93zM947 -54l-4 16q130 38 212 134t82 230q0 41 -10.5 96t-27.5 97q-9 23 0 32l21 22q8 8 16 8t20.5 -6.5t43.5 -6.5q27 0 42 6.5t22 6.5q8 0 16 -8l21 -22q9 -9 0 -32q-16 -42 -27 -97t-11 -96q0 -134 82 -230t212 -134l-4 -16q-107 17 -176.5 54t-131.5 116
q-13 17 -23.5 28t-21.5 11q-10 0 -20.5 -11t-24.5 -28q-62 -79 -131.5 -116t-176.5 -54zM472 454l-14 5q27 99 68 167t103 118q56 45 137 73.5t200 42.5q-57 87 -88 164t-31 155q0 76 25.5 147t80.5 148l11 -7q-29 -59 -42.5 -108t-13.5 -97q0 -98 43.5 -180.5t120.5 -137.5
t179 -72q21 -3 21 -24q0 -17 -18 -25q-83 -36 -83 -113q0 -14 3 -30.5t7 -35.5q5 -19 -9 -30q-22 -16 -39 3q-59 60 -129.5 88.5t-143.5 28.5q-141 0 -258 -95q-77 -62 -130 -185zM1300 -260q197 0 370.5 75.5t306 208t208 306.5t75.5 371t-75.5 370.5t-208 306t-306 207.5
t-370.5 75t-370.5 -75t-306 -207.5t-208 -306t-75.5 -370.5t75.5 -371t208 -306.5t306 -208t370.5 -75.5zM1461 350l-21 57q72 31 117.5 93t52.5 138l59 -2q-7 -95 -63.5 -172.5t-144.5 -113.5zM1134 970l-32 51q89 55 198 55q108 0 197 -55l-31 -51q-77 46 -166 46
t-166 -46zM2128 454q-53 123 -130 185q-117 95 -258 95q-73 0 -143.5 -28.5t-129.5 -88.5q-17 -19 -39 -3q-13 11 -9 30q5 19 7.5 35.5t2.5 30.5q0 77 -83 113q-18 8 -18 25q0 21 21 24q102 17 179.5 72t120.5 137.5t43 180.5q0 48 -13.5 97t-42.5 108l11 7q56 -77 81 -148
t25 -147q0 -78 -31 -155t-88 -164q122 -14 202 -42.5t135 -73.5q62 -50 103 -118t68 -167z" />
    <glyph glyph-name="uni2626" unicode="&#x2626;" vert-adv-y="2600" 
d="M425 -340q-67 0 -116 49t-49 116v1750q0 68 49 116.5t116 48.5h1750q68 0 116.5 -48.5t48.5 -116.5v-1751q0 -67 -49 -115.5t-117 -48.5h-1749zM1237 0h126v263l207 -114l62 106l-269 150v428h544v124h-544v189h280v126h-280v168h-126v-168h-280v-126h280v-189h-544v-124
h544v-358l-208 117l-62 -108l270 -151v-333z" />
    <glyph glyph-name="uni262A" unicode="&#x262a;" vert-adv-y="2600" 
d="M426 -340q-68 0 -117 48.5t-49 115.5v1751q0 68 49 116.5t116 48.5h1750q68 0 116.5 -48.5t48.5 -116.5v-1750q0 -67 -48.5 -116t-116.5 -49h-1749zM1320 -86q177 0 314.5 64t227.5 159q23 23 38.5 48t21.5 46q-111 -96 -238 -147t-255 -51q-136 0 -256.5 50t-213.5 140
t-146 212t-53 266t53 266t146 212t213.5 140t256.5 50q128 0 255 -51t238 -147q-6 21 -21.5 46t-38.5 48q-91 94 -228 158.5t-314 64.5q-171 0 -318 -60t-256.5 -167t-171 -250t-61.5 -310t61.5 -310t171 -250t256.5 -167t318 -60zM1643 460l170 93l170 -93l-60 179l152 130
h-191l-71 180l-71 -180h-191l152 -130z" />
    <glyph glyph-name="peaceSymbol" unicode="&#x262e;" vert-adv-y="2600" 
d="M1260 20q-127 8 -239.5 59.5t-198.5 135.5l438 432v-627zM769 274q-70 88 -110 196.5t-40 229.5q0 136 49.5 256t137 212.5t204 148t250.5 63.5v-621zM1340 20v627l438 -432q-85 -84 -197.5 -135.5t-240.5 -59.5zM1300 -61q158 0 295.5 59t242.5 164t164 243t59 295
q0 158 -59 296t-163.5 242.5t-242.5 163.5t-296 59q-157 0 -295 -59t-243 -164t-164 -242.5t-59 -295.5q0 -157 59 -295t164 -243t243 -164t295 -59zM1831 274l-491 485v621q134 -8 250.5 -63.5t204 -148t137 -212t49.5 -256.5q0 -121 -39.5 -229.5t-110.5 -196.5zM426 -340
q-68 0 -117 48.5t-49 115.5v1751q0 68 49 116.5t116 48.5h1750q68 0 116.5 -48.5t48.5 -116.5v-1750q0 -67 -48.5 -116t-116.5 -49h-1749z" />
    <glyph glyph-name="yinYang" unicode="&#x262f;" vert-adv-y="2600" 
d="M416 -340q-64 0 -110 45.5t-46 108.5v1771q0 64 45.5 109.5t109.5 45.5h1770q64 0 109.5 -45.5t45.5 -109.5v-1770q0 -64 -45.5 -109.5t-109.5 -45.5h-1769zM1299 301q-38 0 -65 27t-27 65t27 65.5t65 27.5t65.5 -27.5t27.5 -65.5t-27.5 -65t-65.5 -27zM1301 -93
q165 0 309 62t254 172t172 254.5t62 309.5t-62 309.5t-171.5 254.5t-254 172t-309.5 62t-310 -62t-255 -172t-172 -254.5t-62 -309.5t62 -309.5t172.5 -254.5t255 -172t309.5 -62zM1301 -13q-148 0 -278.5 56t-229.5 154.5t-155 229t-56 278.5q0 149 56 279t155 228.5
t229 154.5t279 56t278.5 -56t228.5 -154.5t154.5 -228.5t55.5 -279q0 -148 -56 -278.5t-154.5 -229t-228.5 -154.5t-278 -56zM1330 114q114 0 218 47t185.5 128t128.5 184.5t47 217.5q0 151 -69.5 279.5t-201.5 215.5q20 -45 29 -90t9 -100q0 -123 -71 -201.5t-193 -90.5
q-102 -10 -179 -34.5t-128 -63.5t-76.5 -91.5t-25.5 -119.5q0 -79 41 -143t115 -101t171 -37zM1300 901q51 0 85 34t34 83q0 50 -34.5 84t-84.5 34q-49 0 -83.5 -34.5t-34.5 -83.5t34.5 -83t83.5 -34z" />
    <glyph glyph-name="uni2638" unicode="&#x2638;" vert-adv-y="2600" 
d="M1300 -113q17 0 28.5 12t11.5 28v107q110 6 214 49t189 118l75 -75q13 -13 28.5 -13t27.5 12t12.5 28t-12.5 29l-75 75q75 84 118 188t50 216h106q17 0 28.5 12t11.5 28q0 17 -11.5 28.5t-28.5 11.5h-106q-6 111 -49.5 214.5t-119.5 188.5l76 75q12 12 12 28.5t-12 28.5
t-27.5 12t-28.5 -13l-76 -75q-84 75 -187.5 118t-214.5 49v107q0 17 -11.5 28.5t-28.5 11.5q-16 0 -28 -11.5t-12 -28.5v-107q-111 -6 -214.5 -49t-187.5 -118l-76 75q-13 13 -28.5 13t-27.5 -12t-12 -28.5t12 -28.5l76 -75q-76 -85 -119.5 -188.5t-49.5 -214.5h-106
q-16 0 -28 -11.5t-12 -28.5q0 -16 12 -28t28 -12h106q7 -112 50 -216t118 -188l-75 -75q-13 -13 -12.5 -29t12.5 -28t27.5 -12t28.5 13l75 75q86 -75 189.5 -118t213.5 -49v-107q0 -16 12 -28t28 -12zM1300 512q-51 0 -94 27.5t-68.5 71t-25.5 90.5q0 78 55.5 133.5
t132.5 55.5t132.5 -55.5t55.5 -133.5q0 -47 -25.5 -90.5t-68 -71t-94.5 -27.5zM858 315q-64 72 -101 160.5t-43 185.5h321q9 -66 50 -119zM1260 115q-96 6 -184.5 43t-160.5 100l227 228q52 -41 118 -50v-321zM1340 115v321q66 9 118 50l227 -228q-72 -63 -160.5 -100
t-184.5 -43zM1742 315l-227 227q41 53 50 119h321q-6 -97 -43 -185.5t-101 -160.5zM1565 741q-9 66 -50 119l227 226q65 -73 102 -161.5t42 -183.5h-321zM1459 917q-54 40 -119 49v320q95 -5 183.5 -42t161.5 -101zM1141 917l-226 226q73 64 162 101t183 42v-320
q-65 -9 -119 -49zM714 741q5 95 42.5 183.5t101.5 161.5l227 -226q-41 -53 -50 -119h-321zM426 -340q-68 0 -117 48.5t-49 115.5v1751q0 68 49 116.5t116 48.5h1750q68 0 116.5 -48.5t48.5 -116.5v-1750q0 -67 -48.5 -116t-116.5 -49h-1749z" />
    <glyph glyph-name="uni2639" unicode="&#x2639;" vert-adv-y="2600" 
d="M1300 -340q-216 0 -404.5 80.5t-331.5 223.5t-223.5 331.5t-80.5 404.5t80.5 404.5t223.5 331.5t331.5 223.5t404.5 80.5q215 0 403.5 -80.5t331.5 -223.5t224 -331.5t81 -404.5t-81 -404.5t-224 -331.5t-331.5 -223.5t-403.5 -80.5zM823 165l-70 40q49 88 134.5 154
t192.5 103t220 37t219.5 -37t192.5 -103.5t135 -153.5l-70 -40q-42 75 -116.5 132t-168 89.5t-192.5 32.5t-192.5 -32t-168 -89t-116.5 -133zM948 780q-51 0 -88 44.5t-37 105.5q0 62 37 106t88 44t88 -44t37 -106q0 -61 -37 -105.5t-88 -44.5zM1300 -260q199 0 373 74.5
t306 206.5t206.5 306t74.5 373t-74.5 373t-206.5 306t-306 206.5t-373 74.5t-373 -74.5t-306 -206.5t-206.5 -306t-74.5 -373t74.5 -373t206.5 -306t306 -206.5t373 -74.5zM1652 780q-51 0 -88 44.5t-37 105.5q0 62 37 106t88 44t88 -44t37 -106q0 -61 -37 -105.5t-88 -44.5
z" />
    <glyph glyph-name="smileface" unicode="&#x263a;" vert-adv-y="2600" 
d="M1300 -340q-216 0 -404.5 80.5t-331.5 223.5t-223.5 331.5t-80.5 404.5t80.5 404.5t223.5 331.5t331.5 223.5t404.5 80.5q215 0 403.5 -80.5t331.5 -223.5t224 -331.5t81 -404.5t-81 -404.5t-224 -331.5t-331.5 -223.5t-403.5 -80.5zM636 474q-22 11 -12 34l55 115
q11 24 34 12q23 -11 12 -34l-55 -115q-11 -24 -34 -12zM746 446q-23 12 -12 34l81 171q11 24 34 12t12 -34l-81 -171q-11 -24 -34 -12zM882 474q-22 11 -12 34l55 115q11 24 34 12q23 -11 12 -34l-55 -115q-11 -24 -34 -12zM1300 122q-183 0 -378 161l52 62
q170 -143 326 -143q152 0 327 143l50 -62q-196 -161 -377 -161zM748 738l-60 52q104 119 240 119t240 -119l-60 -52q-81 91 -180 91t-180 -91zM1300 -260q199 0 373 74.5t306 206.5t206.5 306t74.5 373t-74.5 373t-206.5 306t-306 206.5t-373 74.5t-373 -74.5t-306 -206.5
t-206.5 -306t-74.5 -373t74.5 -373t206.5 -306t306 -206.5t373 -74.5zM706 1103l-54 60q66 60 159 88t224 28v-80q-118 0 -196.5 -23t-132.5 -73zM1641 474q-22 11 -12 34l55 115q11 24 34 12q23 -11 12 -34l-55 -115q-11 -24 -34 -12zM1751 446q-23 12 -12 34l81 171
q11 24 34 12t12 -34l-81 -171q-11 -24 -34 -12zM1887 474q-22 11 -12 34l55 115q11 24 34 12q23 -11 12 -34l-55 -115q-11 -24 -34 -12zM1492 738l-60 52q104 119 240 119t240 -119l-60 -52q-81 91 -180 91t-180 -91zM1894 1103q-54 50 -132.5 73t-196.5 23v80
q131 0 224 -28t159 -88z" />
    <glyph glyph-name="femaleSign" unicode="&#x2640;" vert-adv-y="2600" 
d="M1180 -340v271h-247v240h247v252q-157 30 -279 124.5t-191.5 232.5t-69.5 297q0 137 51.5 257t142 211t210.5 143t256 52q137 0 256.5 -52t210 -143t142 -211t51.5 -257q0 -159 -69.5 -297t-191 -232.5t-279.5 -124.5v-252h247v-240h-247v-271h-240zM1300 652
q117 0 212 57.5t151.5 154t56.5 213.5q0 116 -56.5 212t-152 153.5t-211.5 57.5t-211.5 -57.5t-152 -153.5t-56.5 -212q0 -117 56.5 -213.5t152 -154t211.5 -57.5z" />
    <glyph glyph-name="maleSign" unicode="&#x2642;" vert-adv-y="2600" 
d="M1004 -340q-150 0 -282 57t-232.5 157.5t-157.5 233t-57 282.5q0 149 57 280t158 231t232.5 157t281.5 57q113 0 218 -33t195 -96l496 514h-341v240h753v-753h-240v345l-495 -513q69 -93 105 -203t36 -226q0 -151 -56.5 -283.5t-156.5 -233t-231.5 -157t-282.5 -56.5z
M1004 -100q135 0 245.5 66t176 177.5t65.5 246.5q0 134 -65.5 244t-176 175.5t-245.5 65.5q-133 0 -244.5 -66t-178 -176t-66.5 -243q0 -134 66.5 -245.5t178 -178t244.5 -66.5z" />
    <glyph glyph-name="uni2648" unicode="&#x2648;" vert-adv-y="2600" 
d="M1300 -340q-171 0 -326 53.5t-285.5 150.5t-226.5 227.5t-149 285.5t-53 323t53 323t149 285.5t226.5 227.5t285.5 150.5t326 53.5t326 -53.5t285.5 -150.5t226.5 -227.5t149 -285.5t53 -323t-53 -323t-149 -285.5t-226.5 -227.5t-285.5 -150.5t-326 -53.5zM1245 127h110
l105 665q23 141 75.5 207.5t142.5 66.5q86 0 143.5 -62t61.5 -151h120q-3 93 -46.5 168.5t-115.5 120t-163 44.5q-138 0 -224 -90.5t-114 -285.5l-40 -282l-40 282q-28 195 -114 285.5t-224 90.5q-90 0 -162.5 -44.5t-116 -120t-46.5 -168.5h120q4 89 62 151t143 62
q90 0 143 -66.5t75 -207.5z" />
    <glyph glyph-name="uni2649" unicode="&#x2649;" vert-adv-y="2600" 
d="M1300 -340q-171 0 -326 53.5t-285.5 150.5t-226.5 227.5t-149 285.5t-53 323t53 323t149 285.5t226.5 227.5t285.5 150.5t326 53.5t326 -53.5t285.5 -150.5t226.5 -227.5t149 -285.5t53 -323t-53 -323t-149 -285.5t-226.5 -227.5t-285.5 -150.5t-326 -53.5zM1300 113
q-101 0 -185 49.5t-133.5 133.5t-49.5 185q0 102 49.5 185.5t133.5 133t185 49.5q102 0 185.5 -49.5t133 -133t49.5 -185.5q0 -101 -49.5 -185t-133 -133.5t-185.5 -49.5zM1300 -7q135 0 245.5 66t176.5 177t66 245q0 131 -65.5 244.5t-178.5 177.5q118 52 201.5 144
t111.5 204l-116 31q-23 -88 -89 -159t-158.5 -112.5t-193.5 -41.5t-193 41.5t-158.5 112.5t-89.5 159l-116 -31q29 -112 112 -204t201 -144q-112 -64 -178 -177.5t-66 -244.5q0 -134 66 -245t177 -177t245 -66z" />
    <glyph glyph-name="uni264A" unicode="&#x264a;" vert-adv-y="2600" 
d="M1300 -340q-171 0 -326 53.5t-285.5 150.5t-226.5 227.5t-149 285.5t-53 323t53 323t149 285.5t226.5 227.5t285.5 150.5t326 53.5t326 -53.5t285.5 -150.5t226.5 -227.5t149 -285.5t53 -323t-53 -323t-149 -285.5t-226.5 -227.5t-285.5 -150.5t-326 -53.5zM781 114
q36 33 115 58.5t184 40.5t220 15t220 -15t184 -40.5t115 -58.5l80 88q-40 37 -109.5 66t-159.5 48v768q90 20 159.5 48.5t109.5 65.5l-80 88q-36 -32 -115 -58t-184 -41t-220 -15t-220 15t-184 41t-115 58l-80 -88q40 -37 109.5 -65.5t159.5 -48.5v-768q-90 -19 -159.5 -48
t-109.5 -66zM1090 335v730q50 -7 102.5 -10t107.5 -3t107.5 3t102.5 10v-730q-50 7 -102.5 10t-107.5 3t-107.5 -3t-102.5 -10z" />
    <glyph glyph-name="uni264B" unicode="&#x264b;" vert-adv-y="2600" 
d="M1300 -340q-171 0 -326 53.5t-285.5 150.5t-226.5 227.5t-149 285.5t-53 323t53 323t149 285.5t226.5 227.5t285.5 150.5t326 53.5t326 -53.5t285.5 -150.5t226.5 -227.5t149 -285.5t53 -323t-53 -323t-149 -285.5t-226.5 -227.5t-285.5 -150.5t-326 -53.5zM899 604
q-72 0 -130.5 35t-93.5 93.5t-35 130.5q0 71 35 129.5t93.5 93t130.5 34.5t130 -34.5t92.5 -92.5t34.5 -130t-34.5 -130.5t-93 -93.5t-129.5 -35zM1359 59q215 0 377.5 60t253 168t90.5 250q0 105 -51 191t-137 137t-191 51q-104 0 -189.5 -51t-136.5 -137t-51 -191
q0 -80 31.5 -148.5t87.5 -117.5t131 -72q-101 -20 -215 -20q-190 0 -316.5 38.5t-213.5 122.5l-82 -86q104 -100 252.5 -147.5t359.5 -47.5zM899 484q104 0 189.5 51t136.5 137t51 191q0 81 -31 149t-87.5 117.5t-131.5 71.5q101 20 215 20q190 0 316.5 -38.5t213.5 -122.5
l82 86q-104 101 -252 148t-360 47q-215 0 -377.5 -60t-253 -167.5t-90.5 -250.5q0 -105 51 -191t137 -137t191 -51zM1701 280q-71 0 -129.5 34.5t-93 93t-34.5 129.5q0 72 34.5 131t93 93.5t129.5 34.5q72 0 131 -34.5t93.5 -93.5t34.5 -131q0 -71 -34.5 -129.5t-93.5 -93
t-131 -34.5z" />
    <glyph glyph-name="uni264C" unicode="&#x264c;" vert-adv-y="2600" 
d="M1300 -340q-171 0 -326 53.5t-285.5 150.5t-226.5 227.5t-149 285.5t-53 323t53 323t149 285.5t226.5 227.5t285.5 150.5t326 53.5t326 -53.5t285.5 -150.5t226.5 -227.5t149 -285.5t53 -323t-53 -323t-149 -285.5t-226.5 -227.5t-285.5 -150.5t-326 -53.5zM907 440
q-63 0 -115 30.5t-83 82.5t-31 115t31 115t83 82.5t115 30.5q64 0 115.5 -30.5t82.5 -82.5t31 -115t-31 -115t-83 -82.5t-115 -30.5zM1646 15q69 0 131.5 23t105.5 65l-82 89q-55 -57 -153 -57q-73 0 -111.5 44t-38.5 127q0 66 39.5 147.5t117.5 178.5q65 80 121 170.5
t56 190.5q0 110 -53 199.5t-142.5 143t-198.5 53.5q-105 0 -195 -49.5t-145 -134t-55 -189.5v-14v-14q-31 14 -66 21t-70 7q-96 0 -175.5 -47t-126.5 -126t-47 -175t47 -175t126.5 -126t175.5 -47t175.5 47t126.5 126.5t47 174.5q0 60 -18.5 106.5t-38.5 79.5
q-19 32 -28.5 65.5t-9.5 73.5q0 77 37 139.5t100 99.5t140 37t139 -36.5t98.5 -99t36.5 -140.5q0 -72 -45.5 -142t-107.5 -147q-67 -83 -124 -186.5t-57 -211.5q0 -133 73 -212t195 -79z" />
    <glyph glyph-name="uni264D" unicode="&#x264d;" vert-adv-y="2600" 
d="M1300 -340q-171 0 -326 53.5t-285.5 150.5t-226.5 227.5t-149 285.5t-53 323t53 323t149 285.5t226.5 227.5t285.5 150.5t326 53.5t326 -53.5t285.5 -150.5t226.5 -227.5t149 -285.5t53 -323t-53 -323t-149 -285.5t-226.5 -227.5t-285.5 -150.5t-326 -53.5zM1837 -13
l61 106q-96 55 -142.5 100.5t-68.5 104.5q178 155 270.5 303t92.5 277q0 125 -66 199.5t-176 74.5q-94 0 -155 -61q-17 118 -87 184t-179 66q-145 0 -212 -115q-67 115 -210 115q-129 0 -200 -85t-71 -239v-770h120v770q0 204 151 204q74 0 112.5 -52t38.5 -152v-770h120
v770q0 204 151 204q74 0 112.5 -52t38.5 -152v-486q0 -58 3 -104.5t10 -84.5q-127 -103 -287 -202l63 -102q77 47 141.5 92t121.5 90q32 -66 88.5 -119.5t158.5 -113.5zM1661 438q-1 23 -2 46.5t-1 46.5v315q0 88 38 137t106 49q61 0 94.5 -40t33.5 -114q0 -92 -68.5 -204.5
t-200.5 -235.5z" />
    <glyph glyph-name="uni264E" unicode="&#x264e;" vert-adv-y="2600" 
d="M1300 -340q-171 0 -326 53.5t-285.5 150.5t-226.5 227.5t-149 285.5t-53 323t53 323t149 285.5t226.5 227.5t285.5 150.5t326 53.5t326 -53.5t285.5 -150.5t226.5 -227.5t149 -285.5t53 -323t-53 -323t-149 -285.5t-226.5 -227.5t-285.5 -150.5t-326 -53.5zM690 188h1220
v120h-1220v-120zM690 463h419v148q-71 43 -114 124t-43 173q0 90 47 164t126 118t175 44t175 -44t126 -118t47 -164q0 -92 -43 -173t-114 -124v-148h419v120h-274q63 63 97.5 148t34.5 177q0 123 -63.5 224.5t-169.5 161.5t-235 60q-128 0 -234.5 -60t-170 -161.5
t-63.5 -224.5q0 -92 34.5 -177t97.5 -148h-274v-120z" />
    <glyph glyph-name="scorpio" unicode="&#x264f;" vert-adv-y="2600" 
d="M1300 -340q-171 0 -326 53.5t-285.5 150.5t-226.5 227.5t-149 285.5t-53 323t53 323t149 285.5t226.5 227.5t285.5 150.5t326 53.5t326 -53.5t285.5 -150.5t226.5 -227.5t149 -285.5t53 -323t-53 -323t-149 -285.5t-226.5 -227.5t-285.5 -150.5t-326 -53.5zM1780 167
q110 0 174.5 72t69.5 198h98l-158 217l-158 -217h98q-4 -77 -34 -114t-89 -37q-62 0 -92.5 46t-30.5 141v502q0 150 -72.5 238t-197.5 88q-72 0 -125.5 -30.5t-87.5 -89.5q-34 59 -87.5 89.5t-123.5 30.5q-128 0 -199 -85.5t-71 -240.5v-728h120v728q0 105 37.5 155.5
t113.5 50.5q73 0 112 -53t39 -153v-728h120v728q0 206 151 206q74 0 112.5 -52.5t38.5 -153.5v-505q0 -144 63.5 -223.5t178.5 -79.5z" />
    <glyph glyph-name="uni2650" unicode="&#x2650;" vert-adv-y="2600" 
d="M1300 -340q-171 0 -326 53.5t-285.5 150.5t-226.5 227.5t-149 285.5t-53 323t53 323t149 285.5t226.5 227.5t285.5 150.5t326 53.5t326 -53.5t285.5 -150.5t226.5 -227.5t149 -285.5t53 -323t-53 -323t-149 -285.5t-226.5 -227.5t-285.5 -150.5t-326 -53.5zM832 110
l366 366l232 -229l84 85l-232 228l453 453v-366h120v570h-590v-120h386l-454 -452l-232 229l-84 -85l232 -229l-366 -365z" />
    <glyph glyph-name="uni2651" unicode="&#x2651;" vert-adv-y="2600" 
d="M1300 -340q-171 0 -326 53.5t-285.5 150.5t-226.5 227.5t-149 285.5t-53 323t53 323t149 285.5t226.5 227.5t285.5 150.5t326 53.5t326 -53.5t285.5 -150.5t226.5 -227.5t149 -285.5t53 -323t-53 -323t-149 -285.5t-226.5 -227.5t-285.5 -150.5t-326 -53.5zM1271 -31
q101 0 174.5 61.5t105.5 171.5q72 -20 159 -20q97 0 172 40t117.5 110.5t42.5 161.5q0 87 -36.5 154.5t-100.5 106.5t-145 39q-90 0 -155 -47.5t-103 -139t-48 -225.5q-110 87 -110 265v348q0 140 -73.5 223t-195.5 83q-71 0 -127.5 -30.5t-91.5 -88.5q-19 32 -46.5 59.5
t-59.5 51.5l-72 -96q124 -89 124 -254v-617h120v669q0 89 40 137.5t111 48.5t111 -48.5t40 -137.5v-348q0 -136 56 -239.5t159 -161.5q-20 -76 -63.5 -117t-102.5 -41q-31 0 -66.5 13t-52.5 30l-81 -88q32 -33 87.5 -53.5t110.5 -20.5zM1710 302q-76 0 -139 18q8 127 29 205
t60.5 113.5t99.5 35.5q72 0 117 -50t45 -130q0 -86 -58 -139t-154 -53z" />
    <glyph glyph-name="uni2652" unicode="&#x2652;" vert-adv-y="2600" 
d="M1300 -340q-171 0 -326 53.5t-285.5 150.5t-226.5 227.5t-149 285.5t-53 323t53 323t149 285.5t226.5 227.5t285.5 150.5t326 53.5t326 -53.5t285.5 -150.5t226.5 -227.5t149 -285.5t53 -323t-53 -323t-149 -285.5t-226.5 -227.5t-285.5 -150.5t-326 -53.5zM1046 142
q81 0 124 99l99 221q14 32 30 32q8 0 15 -6t16 -26l99 -221q44 -99 124 -99t124 99l100 221q9 20 15.5 26t14.5 6q17 0 31 -32l141 -304l109 51l-147 308q-30 62 -61 89t-73 27q-41 0 -72 -23.5t-54 -75.5l-100 -221q-10 -21 -15.5 -27.5t-12.5 -6.5t-12.5 6.5t-15.5 27.5
l-91 204q-28 62 -59.5 89t-75.5 27q-43 0 -74.5 -27t-59.5 -89l-91 -204q-9 -20 -14.5 -27t-13.5 -7q-7 0 -12.5 6.5t-15.5 27.5l-100 221q-22 50 -53.5 74.5t-72.5 24.5q-43 0 -73.5 -27t-60.5 -89l-148 -308l110 -51l140 304q15 32 32 32q8 0 14.5 -6t15.5 -26l100 -221
q44 -99 124 -99zM1046 767q81 0 124 99l99 221q14 32 30 32q8 0 15 -6t16 -26l99 -221q44 -99 124 -99t124 99l100 221q9 20 15.5 26t14.5 6q17 0 31 -32l141 -304l109 51l-147 308q-30 62 -61 89t-73 27q-41 0 -72 -23.5t-54 -75.5l-100 -221q-10 -21 -15.5 -27.5
t-12.5 -6.5t-12.5 6.5t-15.5 27.5l-91 204q-28 62 -59.5 89t-75.5 27q-43 0 -74.5 -27t-59.5 -89l-91 -204q-9 -20 -14.5 -27t-13.5 -7q-7 0 -12.5 6.5t-15.5 27.5l-100 221q-22 50 -53.5 74.5t-72.5 24.5q-43 0 -73.5 -27t-60.5 -89l-148 -308l110 -51l140 304q15 32 32 32
q8 0 14.5 -6t15.5 -26l100 -221q44 -99 124 -99z" />
    <glyph glyph-name="uni2653" unicode="&#x2653;" vert-adv-y="2600" 
d="M1315 -340q-223 0 -414.5 82t-335.5 227.5t-224.5 338.5t-80.5 415q0 207 80.5 390.5t222 324.5t326.5 221.5t395 80.5q223 0 415 -82t336 -227.5t224.5 -338.5t80.5 -415q0 -207 -80.5 -390.5t-222.5 -324.5t-327 -221.5t-395 -80.5zM778 79q128 89 203.5 237.5
t85.5 332.5h466q11 -184 86 -332.5t203 -237.5l70 96q-105 74 -166.5 196.5t-71.5 277.5h303v120h-303q10 156 71.5 278.5t166.5 195.5l-70 96q-128 -89 -203 -237.5t-86 -332.5h-466q-10 185 -85.5 333.5t-203.5 236.5l-70 -96q105 -73 166.5 -195.5t71.5 -278.5h-303v-120
h303q-10 -155 -71.5 -277.5t-166.5 -196.5z" />
    <glyph glyph-name="blackChessPawn" unicode="&#x265f;" vert-adv-y="2600" 
d="M1300 -340q-121 0 -222.5 12t-181 35t-134.5 55t-83.5 72.5t-28.5 87.5q0 39 21 78t56 65q-9 27 -9 67q0 62 44.5 134.5t105.5 111.5q5 52 36 90t77 49q67 84 86 173t23 192q-76 23 -117 65.5t-41 99.5q0 50 29 85.5t81 50.5q-73 88 -73 215q0 99 42 176t116.5 121.5
t172.5 44.5t172.5 -44.5t116.5 -121.5t42 -176q0 -127 -73 -215q52 -15 81 -50.5t29 -85.5q0 -57 -40.5 -99.5t-117.5 -65.5q5 -103 23.5 -192t85.5 -173q47 -11 78 -49t35 -90q62 -39 106 -111.5t44 -134.5q0 -40 -9 -67q35 -26 56 -65t21 -78q0 -47 -28.5 -87.5
t-83.5 -72.5t-134.5 -55t-181 -35t-222.5 -12zM1231 -210q20 -1 33.5 8.5t13.5 26.5q0 16 -12.5 26t-32.5 11q-96 6 -179 24t-150 46q-18 8 -33 4t-22 -18q-7 -15 -0.5 -29t22.5 -22q71 -32 162 -51.5t198 -25.5zM1300 9q155 0 273 26.5t188 75.5q13 9 16 23.5t-6 27.5
q-10 15 -25 16.5t-32 -9.5q-65 -43 -167.5 -64t-246.5 -21t-246.5 21t-167.5 64q-17 11 -31.5 9.5t-25.5 -16.5q-9 -13 -6 -27.5t16 -23.5q70 -49 188.5 -75.5t272.5 -26.5zM1300 319q94 0 166.5 8t133.5 27q17 5 25 18t2 30q-5 15 -19 21.5t-33 1.5q-58 -14 -124.5 -22.5
t-150.5 -8.5t-150 8.5t-125 22.5q-19 5 -33 -1.5t-19 -21.5q-6 -17 2 -30t25 -18q61 -18 133.5 -26.5t166.5 -8.5zM1300 969q54 0 109.5 11t122.5 33q16 5 22 19t1 30q-5 15 -19.5 20.5t-31.5 -1.5q-50 -19 -100.5 -28t-103.5 -9q-105 0 -204 37q-17 7 -31.5 1.5
t-19.5 -20.5q-5 -16 1 -30t22 -19q67 -23 122.5 -33.5t109.5 -10.5zM1168 1377q33 -5 44 38q8 29 27 46t50 27q33 12 29 42q-2 18 -17 26.5t-32 3.5q-50 -13 -84.5 -47.5t-46.5 -87.5q-4 -16 4 -31t26 -17z" />
    <glyph glyph-name="spadeSuit" unicode="&#x2660;" vert-adv-y="2600" 
d="M772 -340q-28 0 -45.5 18t-17.5 48q0 34 24 67t72.5 65.5t119.5 63.5q57 25 113.5 60t94.5 86.5t38 123.5q0 22 -5 50q-66 -55 -125 -88.5t-119 -48t-131 -14.5q-125 0 -220 51t-148 143t-53 214q0 103 44.5 216t133.5 240.5t222 271.5q50 55 120 125.5t146.5 144.5
t145.5 138t118 105q49 -41 118 -105t145.5 -138t146.5 -144.5t120 -125.5q133 -144 222 -271.5t133.5 -240.5t44.5 -216q0 -122 -53 -214t-148 -143t-220 -51q-70 0 -130.5 14.5t-119.5 48t-125 88.5q-5 -28 -5 -50q0 -72 38 -123.5t95 -86.5t113 -60q72 -31 120 -63.5
t72 -65.5t24 -67q0 -30 -17 -48t-46 -18h-1056z" />
    <glyph glyph-name="clubSuit" unicode="&#x2663;" vert-adv-y="2600" 
d="M762 -340q-40 0 -64 25.5t-24 65.5q0 52 27 86t71.5 58t97.5 46q56 24 112 54.5t99 78t59 123.5q-46 -62 -131 -96.5t-195 -34.5q-148 0 -264.5 60t-183 164.5t-66.5 237.5q0 137 63.5 245.5t173 171.5t247.5 63q30 0 54 -4t52 -14q-44 71 -64.5 131t-20.5 119
q0 143 65 256t177 178.5t253 65.5t253 -65.5t177 -178.5t65 -256q0 -59 -20.5 -119t-64.5 -131q29 10 52.5 14t53.5 4q139 0 248 -63t172.5 -171.5t63.5 -245.5q0 -133 -66.5 -237.5t-182.5 -164.5t-265 -60q-109 0 -194 34.5t-132 96.5q16 -76 59 -123.5t99 -78t112 -54.5
q53 -22 97.5 -46t71.5 -58t27 -86q0 -40 -24 -65.5t-64 -25.5h-1076z" />
    <glyph glyph-name="heartSuit" unicode="&#x2665;" vert-adv-y="2600" 
d="M1300 -340q-394 302 -641 560t-363 489t-116 450q0 170 73.5 301t201 205.5t289.5 74.5q116 0 221.5 -42.5t192 -123t142.5 -194.5q57 114 143 194.5t192 123t221 42.5q163 0 290 -74.5t200.5 -205.5t73.5 -301q0 -219 -116 -450t-363 -489t-641 -560z" />
    <glyph glyph-name="diamondSuit" unicode="&#x2666;" vert-adv-y="2600" 
d="M1300 -340q-43 0 -68.5 22.5t-65.5 77.5l-574 801q-37 52 -49.5 79t-12.5 60t12.5 60t49.5 79l574 801q40 56 65.5 78t68.5 22t68.5 -22t65.5 -78l574 -801q38 -52 50 -79t12 -60t-12 -60t-50 -79l-574 -801q-40 -55 -65.5 -77.5t-68.5 -22.5z" />
    <glyph glyph-name="hotSprings" unicode="&#x2668;" vert-adv-y="2600" 
d="M1263 -340q-220 0 -408 45.5t-328.5 127.5t-218.5 192t-78 238q0 116 62 225t169 179h85q-31 -65 -40.5 -101.5t-9.5 -78.5q0 -155 97 -267t277.5 -172.5t429.5 -60.5q250 0 430 60.5t277 172.5t97 267q0 42 -9 78.5t-41 101.5h85q107 -70 169 -179t62 -225
q0 -128 -78 -238t-218.5 -192t-328.5 -127.5t-408 -45.5h-74zM631 363q18 77 27 145.5t9 128.5q0 89 -25.5 177t-51.5 179t-26 186q0 222 266 409h97q-18 -76 -27 -145t-9 -129q0 -88 26 -176.5t51.5 -179t25.5 -186.5q0 -222 -266 -409h-97zM1103 369q16 77 24.5 164
t8.5 141q0 113 -29.5 215t-58.5 199.5t-29 194.5q0 128 69.5 237.5t222.5 219.5h102q-16 -76 -24.5 -163.5t-8.5 -141.5q0 -113 29 -215.5t58.5 -199.5t29.5 -194q0 -129 -69.5 -238t-222.5 -219h-102zM1631 363q18 77 27 145.5t9 128.5q0 89 -25.5 177t-51.5 179t-26 186
q0 222 266 409h97q-18 -76 -27 -145t-9 -129q0 -88 25.5 -176.5t51.5 -179t26 -186.5q0 -222 -266 -409h-97z" />
    <glyph glyph-name="recyclingSymbol" unicode="&#x267b;" vert-adv-y="2600" 
d="M1694 -340l-359 422l359 421h72v-165h269q98 0 167 25t106 71t37 109q0 39 -22 76l-179 312l-288 -163l256 -451l-72 -35l-294 517l428 240l220 -382q31 -53 31 -114q0 -39 -18 -87.5t-51 -97.5l-266 -390q-31 -46 -61 -70.5t-71 -33.5t-106 -9h-86v-195h-72zM730 -216
q-79 0 -137.5 43t-104.5 137l-207 425q-18 38 -25 63t-7 49q0 32 11.5 66t39.5 84l45 78l-170 96l37 63l544 104l187 -522l-36 -62l-141 80l-129 -228q-36 -64 -53.5 -119.5t-17.5 -103.5q0 -69 46.5 -121t116.5 -52h363v333h-529l9 80h600v-493h-442zM493 18q0 65 17 138.5
t59 146.5l167 294l185 -105l-56 -37l-162 445l-466 -89l-8 75l225 -128l-84 -146q-23 -40 -32 -66.5t-9 -49.5q0 -16 7 -34.5t20 -45.5l195 -396zM1686 -301v236h163q54 0 82.5 4t47 19.5t42.5 50.5l241 353l53 -24q-60 -36 -134 -58t-152 -22h-343v211l61 -24l-310 -363
l307 -360zM1038 988l-442 217l192 396q35 72 100.5 105.5t168.5 33.5h472q54 0 90.5 -10.5t68 -39.5t69.5 -84l48 -69l161 110l40 -61l-145 -534l-551 59l-41 60l137 93l-154 224q-58 85 -122 129t-126 44q-99 0 -144 -94l-157 -324l298 -149l231 476l68 -44zM1802 1139
l127 461l54 -38l-198 -136l-90 131q-29 43 -51 65t-47.5 30t-67.5 8h-433l-5 47q69 -22 125 -64.5t105 -114.5l196 -285l-176 -119l-14 66z" />
    <glyph glyph-name="uni267E" unicode="&#x267e;" vert-adv-y="2600" 
d="M862 412q-68 0 -125 34.5t-90.5 92.5t-33.5 128q0 71 33.5 128.5t90.5 92t125 34.5q91 0 175.5 -60t198.5 -196q-113 -134 -197.5 -194t-176.5 -60zM860 312q116 0 217 68t223 212q122 -144 223.5 -212t216.5 -68q96 0 174.5 48t125.5 129t47 178q0 98 -47 178.5
t-125.5 128.5t-174.5 48q-115 0 -215.5 -68t-224.5 -213q-123 145 -223.5 213t-216.5 68q-95 0 -174 -48t-126 -128.5t-47 -178.5q0 -97 47 -178t126 -129t174 -48zM1738 412q-91 0 -176 60t-198 194q114 136 198.5 196t175.5 60q69 0 125.5 -34.5t90 -92t33.5 -128.5
q0 -70 -33.5 -128t-90 -92.5t-125.5 -34.5zM426 -340q-68 0 -117 48.5t-49 115.5v1751q0 68 49 116.5t116 48.5h1750q68 0 116.5 -48.5t48.5 -116.5v-1750q0 -67 -48.5 -116t-116.5 -49h-1749z" />
    <glyph glyph-name="uni267F" unicode="&#x267f;" vert-adv-y="2600" 
d="M426 -340q-68 0 -117 48.5t-49 115.5v1751q0 68 49 116.5t116 48.5h1750q68 0 116.5 -48.5t48.5 -116.5v-1750q0 -67 -48.5 -116t-116.5 -49h-1749zM1121 -59q79 0 152 25t134 72l-115 115q-78 -52 -171 -52q-85 0 -156 42t-113 113t-42 157q0 90 52 170l-115 115
q-47 -62 -72 -135t-25 -150q0 -130 63.5 -237.5t170.5 -171t237 -63.5zM1468 93q60 67 92.5 149.5t32.5 170.5q0 53 -13 106.5t-39 106.5l139 8l-31 -380q-3 -41 21.5 -68t66.5 -27q36 0 60.5 22.5t27.5 57.5l38 481q4 44 -22 70.5t-70 24.5l-337 -18l177 201q35 40 35 82
q0 58 -56 91l-414 241q-19 12 -43 12q-32 0 -59 -24l-209 -186q-29 -26 -29 -65q0 -36 25 -62t61 -26q35 0 60 22l161 143l139 -81l-235 -268q-142 -23 -245 -118l113 -113q89 78 206 78q86 0 156.5 -42t112.5 -112.5t42 -156.5q0 -118 -78 -207zM1736 1197q62 0 106 44
t44 105q0 62 -44 106.5t-106 44.5q-61 0 -105.5 -44.5t-44.5 -106.5q0 -61 44.5 -105t105.5 -44z" />
    <glyph glyph-name="uni2692" unicode="&#x2692;" vert-adv-y="2600" 
d="M655 -340q-54 0 -94 35l-111 98q-51 46 -51 107q0 58 38 96l1143 1142l57 -60l-1144 -1138q-14 -13 -14 -40q0 -28 22 -47l112 -96q18 -17 42 -17q28 0 48 23l1055 1194l59 -54l-1054 -1192q-46 -51 -108 -51zM1068 559l-346 387l56 55l347 -387zM1925 -340
q-62 0 -108 51l-555 629l52 60l563 -637q20 -23 48 -23q24 0 42 17l112 96q22 19 22 47q0 26 -14 40l-629 627l52 61l633 -632q38 -38 38 -96q0 -61 -51 -107l-111 -98q-40 -35 -94 -35zM467 711q-76 0 -129 53l-147 148q-51 53 -51 127q0 75 51 126l525 524q51 51 126 51
t127 -52l147 -147q52 -52 52 -127q0 -74 -52 -126l-525 -524q-55 -53 -124 -53zM467 791q38 0 68 30l524 524q29 29 29 69q0 41 -29 70l-147 147q-29 29 -70 29q-39 0 -69 -28l-525 -524q-28 -28 -28 -69q0 -43 28 -71l147 -147q30 -30 72 -30zM372 1330q-7 0 -10 4
q-18 21 -18 50q0 14 4.5 31.5t28.5 39.5l61 59q17 17 36.5 28.5t45.5 11.5q22 0 35 -10t13 -24q0 -11 -5 -23.5t-22 -29.5l-115 -111q-17 -17 -30.5 -21.5t-23.5 -4.5zM1266 761l-364 365l54 54l367 -364zM2375 643q-47 0 -84 42t-90 128q-42 68 -95 129t-108 104l-139 -145
q-17 -17 -37 -17q-12 0 -28 9t-54 38q-10 8 -34 30.5t-52 50t-52.5 53t-37.5 38.5q-17 17 -17 42q0 18 13 34l121 139q-40 31 -100 59t-125.5 49.5t-122.5 30.5l3 90l293 193q77 -12 170 -56t186 -112t169 -151q92 -100 161 -222t107 -243t38 -218q0 -37 -23.5 -66
t-61.5 -29zM2367 723q14 0 18 9t4 23q0 68 -33 169.5t-99 217.5t-164 228q-66 76 -155 138.5t-178.5 104.5t-158.5 55l86 12l-256 -169q63 -14 130.5 -41.5t130 -62.5t109.5 -72l-161 -187q37 -48 82.5 -92t97.5 -81l169 177q55 -34 133.5 -107.5t146.5 -187.5
q47 -78 66.5 -106t31.5 -28z" />
    <glyph glyph-name="uni2693" unicode="&#x2693;" vert-adv-y="2600" 
d="M1300 -340q-179 0 -338 57.5t-287 167.5t-214 265q-20 -7 -43 -11t-46 -6q-27 95 -42 185t-15 166q0 100 29 154.5t83 54.5q24 0 46.5 -12.5t55.5 -45.5t85 -96l20 -24q32 -39 75.5 -85t98.5 -99q-12 -21 -30.5 -38.5t-41.5 -31.5q45 -44 105.5 -81.5t122 -60
t108.5 -22.5q11 0 17 6.5t7 19.5l47 624l-151 27q-52 10 -81 35.5t-29 69.5q0 45 29.5 71.5t81.5 34.5l172 27l13 178q-77 33 -127.5 102.5t-50.5 157.5q0 81 40.5 147t109 104.5t150.5 38.5q83 0 151 -38.5t108.5 -104.5t40.5 -147q0 -88 -50.5 -157.5t-127.5 -102.5
l13 -178l172 -27q53 -8 82 -34.5t29 -71.5q0 -44 -28.5 -69.5t-81.5 -35.5l-151 -27l47 -624q1 -13 7.5 -19.5t16.5 -6.5q47 0 108.5 22.5t122 60t105.5 81.5q-22 14 -41 31.5t-31 38.5q55 53 98.5 99t75.5 85l20 24q53 63 85.5 96t55.5 45.5t46 12.5q54 0 83 -54.5
t29 -154.5q0 -76 -15 -166t-42 -185q-22 2 -45.5 6t-43.5 11q-86 -155 -214 -265t-287 -167.5t-338 -57.5zM1300 -260q262 0 471 132t327 371q21 -7 40.5 -11.5t33.5 -6.5q8 29 16 78t13.5 100.5t5.5 86.5q0 56 -9.5 89.5t-25.5 33.5q-8 0 -22.5 -12t-39 -39t-63.5 -74
l-20 -24q-22 -27 -54 -60.5t-69 -71.5q18 -15 34.5 -24.5t41.5 -23.5q-23 -46 -74 -93.5t-117 -86.5t-134.5 -63t-126.5 -24q-96 0 -102 80l-55 716l223 39q29 5 36.5 11t7.5 16t-8 16t-35 10l-235 37l-22 297q80 13 133.5 71.5t53.5 139.5q0 62 -30 112t-80.5 79t-114.5 29
q-63 0 -114 -29t-81 -79t-30 -112q0 -81 53.5 -139.5t133.5 -71.5l-22 -297l-235 -37q-27 -4 -35 -10t-8 -16t8 -16t36 -11l223 -39l-55 -716q-6 -80 -102 -80q-58 0 -126.5 24t-134.5 63t-117 86.5t-74 93.5q26 14 42 23.5t34 24.5q-37 38 -68.5 71.5t-54.5 60.5l-20 24
q-39 47 -63.5 74t-39 39t-22.5 12q-16 0 -25.5 -33.5t-9.5 -89.5q0 -35 5.5 -86.5t13.5 -100.5t16 -78q14 2 33.5 6.5t40.5 11.5q118 -239 327 -371t471 -132zM1300 1314q-55 0 -95.5 40.5t-40.5 95.5q0 56 40.5 96t95.5 40q56 0 96 -40t40 -96q0 -55 -40 -95.5t-96 -40.5z
M1300 1374q31 0 53.5 22.5t22.5 53.5t-22.5 53.5t-53.5 22.5t-53.5 -22.5t-22.5 -53.5t22.5 -53.5t53.5 -22.5z" />
    <glyph glyph-name="uni2694" unicode="&#x2694;" vert-adv-y="2600" 
d="M973 102l-56 57l1106 1106q152 152 193 400l14 -14q-250 -43 -400 -193l-1105 -1107l-56 56l1104 1107q97 97 234.5 155t297.5 71q-12 -161 -70 -297.5t-156 -234.5zM454 -340q-60 0 -141 82q-83 84 -83 142q0 40 26 65.5t66 22.5l52 -4l3 -68l-46 5q-12 2 -20 -3.5
t-8 -16.5q0 -13 16 -34.5t48 -54.5q30 -31 51.5 -45.5t34.5 -14.5q25 0 22 27l-5 44l68 -4l6 -51q5 -40 -22 -66t-68 -26zM526 -131l36 31q-22 8 -45 29t-37 39q-5 7 -10 7q-7 0 -14 -8t-7 -16t7 -20q11 -20 30 -36.5t40 -25.5zM604 -63l37 27q-22 11 -44.5 35t-33.5 42
q-5 9 -14 9t-14.5 -9t-5.5 -16q0 -11 7 -22q26 -39 68 -66zM512 -225q-22 0 -48.5 16t-54.5 44q-28 29 -45.5 58t-17.5 51q0 15 11 28l233 268l221 -221l-269 -233q-12 -11 -30 -11zM681 4l38 28q-26 15 -54.5 42t-37.5 45q-4 8 -13 8q-21 0 -21 -27q0 -9 5 -19
q7 -14 32.5 -36t50.5 -41zM1073 -178q-35 0 -69 26q-61 47 -137 112t-174 166q-100 104 -165.5 178t-112.5 134q-26 34 -26 69q0 34 24 55.5t54 21.5q35 0 69 -24q39 -28 81 -61.5t97 -84.5t134 -132t130.5 -136t86 -96t61.5 -80q25 -35 25 -69q0 -31 -21.5 -55t-56.5 -24z
M1071 -112q13 0 13 14q0 12 -11 27q-27 37 -60 78t-83 95.5t-129 132.5t-134 127.5t-95.5 82.5t-76.5 61q-15 12 -27 12t-12 -13q0 -11 12 -26q45 -56 108 -128.5t164 -177.5q101 -104 174.5 -166.5t130.5 -105.5q17 -13 26 -13zM1627 102l-360 360l56 57l360 -360z
M1996 -63q42 27 68 66q7 11 7 22q0 8 -6 16.5t-14 8.5q-9 0 -14 -9q-11 -19 -33 -42.5t-45 -34.5zM1919 4q24 17 50 40t33 37q5 10 5 19q0 12 -6.5 19.5t-14.5 7.5q-7 0 -13 -8q-13 -16 -39.5 -44t-52.5 -43zM2074 -131q21 9 40 25.5t30 36.5q7 12 7 20q0 7 -6.5 15.5
t-14.5 8.5q-6 0 -10 -7q-10 -19 -35 -39.5t-47 -28.5zM2146 -340q-40 0 -67 26t-23 66l6 51l68 4l-5 -44q-3 -27 22 -27q13 0 34.5 14.5t51.5 45.5q32 33 48 54.5t16 34.5q0 11 -8 16.5t-20 3.5l-46 -5l3 68l52 4q40 3 66 -22.5t26 -65.5q0 -58 -83 -142q-81 -82 -141 -82z
M2088 -225q-18 0 -30 11l-269 233l221 221l233 -268q11 -13 11 -28q0 -22 -17 -51t-46 -58q-28 -28 -54 -44t-49 -16zM1527 -178q-34 0 -56 24t-22 55q0 34 25 69q28 39 62 80t85.5 96t130.5 136t134 132t97 84.5t81 61.5q34 24 69 24q30 0 54 -21.5t24 -55.5q0 -35 -26 -69
q-46 -60 -111.5 -134t-166.5 -178q-98 -101 -172.5 -167.5t-138.5 -110.5q-37 -26 -69 -26zM1529 -112q9 0 26 13q58 43 132 105t174 167q101 105 162 179t109 127q13 14 13 26q0 13 -13 13q-10 0 -27 -12q-37 -27 -77.5 -60t-95 -82.5t-133.5 -128.5q-78 -78 -128.5 -133
t-83 -95.5t-59.5 -77.5q-12 -16 -12 -27q0 -14 13 -14zM1015 713l-494 495q-97 98 -155.5 234.5t-70.5 297.5q161 -13 298 -71t234 -155l499 -501l-57 -55l-499 500q-150 150 -400 193l14 14q41 -248 193 -400l496 -496zM1758 241l-357 357l42 43l357 -357zM1153 846
l-810 810l43 42l810 -810zM1875 351l-361 361l56 58l361 -363zM842 241l-42 43l1414 1414l43 -42z" />
    <glyph glyph-name="medicalSymbol" unicode="&#x2695;" vert-adv-y="2600" 
d="M1823 -308q-56 43 -136.5 73.5t-181.5 44.5l-296 41q-194 27 -275.5 74t-81.5 134q0 95 73.5 147.5t206.5 52.5h472q86 0 119 12.5t33 41.5q0 17 -17 28t-63.5 20.5t-137.5 19.5l-451 53q-107 13 -195 38t-139.5 76.5t-51.5 140.5q0 107 94 159t288 52h572q107 0 152 17
t45 56q0 36 -42 50.5t-152 14.5h-498q-319 0 -477 72t-158 220q0 118 90.5 193.5t231.5 75.5q81 0 137 -19t85.5 -49.5t29.5 -67.5q0 -46 -54 -46h-56q-27 0 -27 -24q0 -23 27 -23h38q-4 -38 -96 -38q-64 0 -119.5 6.5t-89.5 19.5q0 -46 37.5 -76t132.5 -44t267 -14h507
q409 0 409 -251q0 -125 -108 -189.5t-320 -64.5h-567q-72 0 -102 -9t-30 -30q0 -22 34 -34t132 -24l445 -55q228 -28 326.5 -83.5t98.5 -159.5q0 -118 -89 -172t-280 -53l-489 3q-63 0 -63 -43q0 -27 32 -43t114 -27l309 -43q161 -22 231 -81.5t74 -172.5zM1351 -340v1791
h80v-1791h-80zM896 1454q32 0 32 31q0 32 -32 32q-31 0 -31 -32q0 -31 31 -31zM1392 1391q-73 0 -124 51t-51 124q0 72 51.5 123t123.5 51t123 -51t51 -123q0 -73 -50.5 -124t-123.5 -51z" />
    <glyph glyph-name="balanceScale" unicode="&#x2696;" vert-adv-y="2600" 
d="M2039 -8q-106 0 -190 29.5t-132.5 85t-48.5 131.5q0 21 6 48t13 53l253 881l73 -23l-254 -886q50 23 122.5 29.5t157.5 6.5q86 0 158.5 -6.5t121.5 -29.5l-254 886l73 23l253 -881q8 -26 13.5 -53t5.5 -48q0 -76 -48.5 -131.5t-132.5 -85t-190 -29.5zM561 72
q122 0 188.5 35t75.5 98h-528q9 -63 76 -98t188 -35zM561 -8q-106 0 -190 29.5t-132.5 85t-48.5 131.5q0 21 6 48t13 53l253 881l73 -23l-254 -886q50 23 122.5 29.5t157.5 6.5q86 0 158.5 -6.5t121.5 -29.5l-254 886l73 23l253 -881q8 -26 13.5 -53t5.5 -48
q0 -76 -48.5 -131.5t-132.5 -85t-190 -29.5zM1300 -340q-185 0 -292 11.5t-152 41.5t-45 84q0 61 42 97t136 70q69 25 92.5 43.5t21.5 55.5l-3 52q-4 71 22.5 121t81.5 79l45 -69q-75 -36 -69 -132l3 -54q3 -44 -18.5 -74t-59.5 -50.5t-86 -36.5q-54 -18 -91 -39.5
t-37 -52.5q0 -15 15 -27.5t57.5 -21.5t123.5 -13.5t213 -4.5t213 4.5t123.5 13.5t57.5 21.5t15 27.5q0 31 -37 52t-91 40q-47 17 -85 37t-59.5 50t-19.5 74l3 54q6 96 -69 132l45 69q111 -60 104 -200l-3 -52q-2 -37 21.5 -55.5t92.5 -43.5q94 -34 136 -70t42 -97
q0 -54 -45 -84t-152 -41.5t-292 -11.5zM521 297v911h80v-911h-80zM561 1173q-69 0 -118 49t-49 117q0 70 48.5 118.5t118.5 48.5q69 0 118 -49t49 -118q0 -68 -49 -117t-118 -49zM561 1253q35 0 61 26t26 60q0 35 -26 61t-61 26q-36 0 -61.5 -26t-25.5 -61q0 -34 25.5 -60
t61.5 -26zM1300 192q-65 0 -121 38v935l80 -38v-837q26 -8 41 -8t41 8v837l80 38v-935q-56 -38 -121 -38zM796 1120q-133 0 -228 84l97 28q28 -15 61 -23.5t70 -8.5q44 0 94.5 12t113.5 36l16 6q29 11 62.5 19.5t68.5 15.5l-13 -84q-26 -5 -48 -11t-42 -14l-14 -6
q-46 -19 -109 -36.5t-129 -17.5zM2039 72q122 0 188.5 35t75.5 98h-528q9 -63 76 -98t188 -35zM799 1278q-65 0 -122 33l31 76q38 -29 91 -29q59 0 163 41l15 6q43 17 93 29t107 18l-16 -82q-84 -12 -154 -39l-15 -6q-51 -20 -100 -33.5t-93 -13.5zM1300 1092
q-88 0 -145.5 51.5t-57.5 129.5q0 68 34.5 150t84.5 133l60 -48q-20 -21 -43 -65t-39.5 -91t-16.5 -79q0 -44 34 -72.5t89 -28.5t89 28.5t34 72.5q0 32 -16.5 79t-39.5 91t-43 65l60 48q50 -51 84.5 -133t34.5 -150q0 -78 -57.5 -129.5t-145.5 -51.5zM1999 297v911h80v-911
h-80zM1300 1473q-55 0 -94.5 39t-39.5 94q0 56 39.5 95t94.5 39q56 0 95 -39t39 -95q0 -55 -39 -94t-95 -39zM1300 1553q23 0 38.5 15.5t15.5 37.5q0 23 -15.5 38.5t-38.5 15.5q-22 0 -38 -15.5t-16 -38.5q0 -22 16 -37.5t38 -15.5zM1804 1120q-66 0 -128.5 17.5
t-109.5 36.5l-14 6q-20 8 -42 14t-48 11l-13 84q35 -7 68.5 -15.5t62.5 -19.5l16 -6q63 -24 113.5 -36t94.5 -12q37 0 70 8.5t61 23.5l97 -28q-94 -84 -228 -84zM1801 1278q-44 0 -93 13.5t-100 33.5l-15 6q-70 27 -154 39l-16 82q113 -12 200 -47l15 -6q104 -41 163 -41
q53 0 91 29l31 -76q-57 -33 -122 -33zM2039 1173q-69 0 -118 49t-49 117q0 69 49 118t118 49q70 0 118.5 -48.5t48.5 -118.5q0 -68 -49 -117t-118 -49zM2039 1253q36 0 61.5 26t25.5 60q0 35 -25.5 61t-61.5 26q-35 0 -61 -26t-26 -61q0 -34 26.5 -60t60.5 -26z" />
    <glyph glyph-name="uni2697" unicode="&#x2697;" vert-adv-y="2600" 
d="M362 -340q-40 0 -70 23t-42 58.5t2 72.5l313 827l25 -38q-169 30 -257 81t-88 118q0 41 26 66t68 25q30 0 54 -10q51 -21 156.5 -43t243 -37.5t284.5 -15.5q148 0 285 15.5t242.5 37.5t156.5 43q24 10 54 10q42 0 68 -25t26 -66q0 -70 -91 -121.5t-252 -76.5l23 37
l313 -827q14 -37 2 -72.5t-41.5 -58.5t-70.5 -23q-34 0 -62.5 18t-42.5 49l-361 835h-498l-361 -835q-13 -31 -41.5 -49t-63.5 -18zM544 460q-97 96 -156 221l98 -14q46 -80 108 -139zM1061 -224q-46 0 -79.5 31.5t-36.5 77.5l-23 395l81 -24l22 -366q1 -14 11.5 -24
t24.5 -10q15 0 25 9.5t11 24.5l22 366l81 22l-23 -393q-3 -46 -36 -77.5t-80 -31.5zM362 -260q24 0 32 20l372 882q71 -7 147 -11t164 -4t164.5 4t146.5 11l372 -882q8 -20 32 -20q20 0 34 16t7 34l-330 865q160 24 253 63t93 84q0 32 -34 32q-12 0 -25 -5q-57 -21 -167 -45
t-251.5 -40.5t-294.5 -16.5q-152 0 -294 16.5t-252 40.5t-167 45q-13 5 -25 5q-34 0 -34 -32q0 -45 93 -84t253 -63l-330 -865q-7 -18 7 -34t34 -16zM1067 246q-92 0 -182 23t-171 66l-20 92q102 -52 192.5 -76.5t180.5 -24.5q85 0 168.5 21t174.5 67l28 -71
q-85 -47 -179.5 -72t-191.5 -25zM1080 426q-94 0 -164.5 22t-142.5 63l50 92h514l50 -92q-72 -41 -142.5 -63t-164.5 -22zM1066 766l-513 38q-11 32 -19 73.5t-10 81.5q32 -18 109 -31.5t188 -20.5t245 -7t245 7t188 20.5t109 31.5q-1 -40 -9.5 -81.5t-19.5 -73.5z
M1067 1000q-143 0 -267 9.5t-200.5 24.5t-76.5 30t76 29.5t200 24t268 9.5t267.5 -9.5t199.5 -24t76 -29.5t-76.5 -30t-200 -24.5t-266.5 -9.5zM1611 482l-40 78q23 26 41 50.5t32 49.5h91q-48 -97 -124 -178zM1718 856q15 69 15 137q0 35 -0.5 58t-2.5 37l448 -108
q29 -7 52.5 19t36.5 74q10 39 10 70q0 54 -28 68l-508 248q-100 49 -210 95t-226.5 76t-237.5 30q-138 0 -259 -52t-212.5 -143.5t-143.5 -212.5t-52 -259q0 -34 3.5 -67.5t10.5 -67.5l-83 11q-5 29 -8 60.5t-3 63.5q0 155 58 290.5t160.5 238t238 160.5t290.5 58
q130 0 254.5 -31.5t239.5 -79.5t216 -98l516 -254q30 -15 46 -50t16 -86q0 -44 -12 -89q-20 -76 -68 -120.5t-98 -32.5l-394 94l30 19q0 -39 -2.5 -78t-9.5 -78h-83z" />
    <glyph glyph-name="uni2699" unicode="&#x2699;" vert-adv-y="2600" 
d="M1122 -340l-34 340q-31 9 -64.5 22.5t-69.5 31.5l-264 -215l-252 252l215 265q-35 69 -53 133l-340 34v355l341 34q19 70 53 131l-216 266l252 252l265 -215q57 33 133 55l34 339h357l34 -339q73 -21 133 -55l264 215l253 -252l-217 -266q34 -60 54 -131l341 -34v-355
l-340 -34q-20 -65 -53 -133l215 -265l-253 -252l-264 215q-35 -18 -68 -31.5t-65 -22.5l-34 -340h-357zM1194 -260h213l32 323q115 25 214 90l253 -206l149 148l-206 253q66 110 87 214l325 33v211l-324 32q-13 60 -35.5 113t-53.5 99l207 255l-149 148l-253 -206
q-104 68 -214 89l-32 324h-213l-33 -324q-109 -21 -214 -89l-253 206l-148 -148l207 -255q-31 -46 -53.5 -99t-36.5 -113l-323 -32v-211l325 -33q19 -103 86 -214l-205 -253l148 -148l253 206q98 -64 214 -90zM1300 420q-77 0 -140.5 37.5t-101 101t-37.5 140.5
q0 78 37.5 141.5t101 101t140.5 37.5q78 0 141.5 -37.5t101 -101t37.5 -141.5q0 -77 -37.5 -140.5t-101 -101t-141.5 -37.5zM1300 495q86 0 145.5 59.5t59.5 144.5q0 86 -59.5 145.5t-145.5 59.5q-85 0 -144.5 -59.5t-59.5 -145.5q0 -85 59.5 -144.5t144.5 -59.5zM1300 272
q118 0 214.5 58t154.5 155t58 214q0 118 -58 214.5t-154.5 154.5t-214.5 58q-117 0 -214 -58t-155 -154.5t-58 -214.5q0 -117 58 -214t155 -155t214 -58zM1300 202q-137 0 -250 67t-180 180t-67 250t67 250t180 180t250 67t250 -67t180 -179.5t67 -250.5q0 -137 -67 -250
t-179.5 -180t-250.5 -67z" />
    <glyph glyph-name="uni269B" unicode="&#x269b;" vert-adv-y="2600" 
d="M426 -340q-68 0 -117 48.5t-49 115.5v1751q0 68 49 116.5t116 48.5h1750q68 0 116.5 -48.5t48.5 -116.5v-1750q0 -67 -48.5 -116t-116.5 -49h-1749zM831 256q-117 0 -152 57q-14 23 -14 53q0 53 39.5 124t112.5 150q32 -31 70 -63t83 -66q6 -63 15.5 -120.5t21.5 -107.5
q-97 -27 -176 -27zM1300 -30q-55 0 -105.5 67t-88.5 191q47 16 95.5 36t98.5 44q50 -24 99 -44t95 -36q-38 -124 -88.5 -191t-105.5 -67zM1083 306q-8 35 -14 71t-11 70q14 -9 28.5 -18.5t29.5 -19.5q23 -15 46.5 -28t46.5 -26q-30 -13 -61.5 -25.5t-64.5 -23.5zM963 620
q-25 20 -47 39.5t-42 38.5q20 20 42.5 39.5t46.5 38.5q-1 -19 -1.5 -37.5t-0.5 -36.5q0 -21 0.5 -41.5t1.5 -40.5zM817 755q-73 80 -112.5 151.5t-39.5 123.5q0 34 14 56q37 57 149 57q72 0 178 -28q-13 -52 -22 -110.5t-15 -120.5q-41 -31 -79 -63t-73 -66zM1517 306
q-33 11 -64.5 23.5t-61.5 25.5q23 13 46.5 26t46.5 28q15 10 30 19.5t28 18.5q-4 -34 -10.5 -70t-14.5 -71zM1300 -110q84 0 154.5 81.5t117.5 233.5q55 -14 104 -21.5t91 -7.5q80 0 135.5 25t85.5 70q27 41 27 95q0 69 -45 154.5t-131 177.5q85 92 130.5 178.5t45.5 156.5
q0 52 -26 95q-28 46 -83.5 70t-133.5 24q-46 0 -96.5 -7.5t-103.5 -22.5q-46 152 -117 235t-155 83t-154.5 -83t-117.5 -235q-52 15 -103 22.5t-97 7.5q-78 0 -133 -24t-84 -70q-26 -43 -26 -95q0 -70 45.5 -156.5t130.5 -178.5q-85 -92 -130.5 -177.5t-45.5 -154.5
q0 -54 27 -95q30 -45 86 -70t135 -25q42 0 91 7.5t104 21.5q47 -152 117.5 -233.5t154.5 -81.5zM1300 398q-34 18 -70.5 38t-71.5 42q-28 18 -56.5 37t-54.5 38q-3 36 -4.5 73t-1.5 76q0 36 1.5 71t3.5 69q31 22 60 42t57 37q32 20 66 39.5t71 38.5q37 -19 71 -38.5
t66 -39.5q28 -17 57 -37t60 -42q2 -34 3.5 -69t1.5 -71q0 -39 -1.5 -76t-4.5 -73q-26 -19 -54 -38t-57 -37q-35 -22 -71 -42t-71 -38zM1300 598q43 0 73 30t30 73t-30 73t-73 30t-73 -30t-30 -73t30 -73t73 -30zM1058 948q5 38 11.5 74.5t13.5 70.5q29 -10 60.5 -23
t65.5 -29q-22 -11 -44 -24t-44 -27q-16 -10 -32 -20.5t-31 -21.5zM1769 256q-78 0 -176 27q12 50 21.5 107.5t15.5 120.5q45 34 83 66t70 63q73 -79 112.5 -150t39.5 -124q0 -30 -14 -53q-34 -57 -152 -57zM1637 620q1 20 1.5 40.5t0.5 41.5q0 18 -0.5 36.5t-1.5 37.5
q24 -19 46.5 -38.5t42.5 -39.5q-20 -19 -42 -38.5t-47 -39.5zM1542 948q-15 11 -31 21.5t-32 20.5q-22 14 -43.5 27t-44.5 24q34 16 65.5 29t60.5 23q8 -34 14.5 -70.5t10.5 -74.5zM1300 1089q-49 25 -98.5 45t-97.5 36q39 125 90 192.5t106 67.5t106 -67.5t90 -192.5
q-48 -16 -97 -36t-99 -45zM1783 755q-34 34 -72.5 66t-79.5 63q-6 62 -15 120.5t-22 110.5q106 28 178 28q114 0 149 -57q14 -22 14 -56q0 -52 -39 -123.5t-113 -151.5z" />
    <glyph glyph-name="uni269C" unicode="&#x269c;" vert-adv-y="2600" 
d="M590 298q-82 0 -142.5 34t-94 96.5t-33.5 147.5q0 114 49.5 202t136 138t196.5 50q93 0 181 -40.5t158 -117.5l-24 -29q-43 79 -60.5 148.5t-17.5 158.5q0 105 40.5 213.5t121 219.5t199.5 221q119 -110 199.5 -221t121 -219.5t40.5 -213.5q0 -89 -17 -158.5t-61 -148.5
l-24 29q71 77 158.5 117.5t180.5 40.5q111 0 197 -50t135.5 -138t49.5 -202q0 -85 -33.5 -147.5t-94 -96.5t-142.5 -34q-47 0 -84 8q23 33 34.5 70t11.5 75q0 71 -37.5 114t-99.5 43q-66 0 -114 -39.5t-69 -112.5l-72 12q26 97 95.5 154.5t159.5 57.5q92 0 152 -65.5
t60 -165.5q0 -25 -6.5 -53t-30.5 -67l-11 43q4 -1 9 -2t11 -1q55 0 95.5 24.5t63 71t22.5 111.5q0 94 -39.5 165t-108.5 111.5t-159 40.5q-123 0 -233 -79.5t-173 -211.5v-129h-78v162q72 96 110.5 166.5t52.5 137t14 147.5q0 87 -32.5 178t-96 183.5t-157.5 183.5
q-93 -91 -157 -183.5t-96.5 -183.5t-32.5 -178q0 -81 14.5 -147.5t52.5 -137t110 -166.5v-162h-78v129q-63 132 -173 211.5t-233 79.5q-89 0 -158.5 -40.5t-109 -111.5t-39.5 -165q0 -65 22.5 -111.5t63 -71t95.5 -24.5q6 0 11 1t9 2l-11 -43q-24 39 -30.5 67t-6.5 53
q0 100 60.5 165.5t151.5 65.5q90 0 160 -57.5t95 -154.5l-72 -12q-21 73 -69 112.5t-114 39.5q-62 0 -99.5 -43t-37.5 -114q0 -38 11.5 -75t34.5 -70q-37 -8 -84 -8zM1300 -340q-105 72 -152.5 174.5t-47.5 228.5q0 26 5.5 61t15.5 66l16 -94q-34 -76 -96.5 -116.5
t-144.5 -40.5q-98 0 -161.5 55.5t-63.5 141.5q0 44 20.5 83t65.5 73q26 -42 49.5 -59.5t56.5 -17.5q46 0 68.5 32.5t22.5 98.5l73 -2q0 -96 -42.5 -148.5t-119.5 -52.5q-39 0 -71.5 16.5t-52.5 47.5h31q-14 -16 -20 -34t-6 -37q0 -55 41.5 -90t108.5 -35q107 0 171 91
t64 246h110q-33 -84 -49.5 -153.5t-16.5 -126.5q0 -99 33.5 -182.5t91.5 -132.5q59 49 92 132.5t33 182.5q0 57 -16.5 126.5t-49.5 153.5h110q0 -155 64 -246t171 -91q67 0 108.5 35t41.5 90q0 19 -6 37t-20 34h31q-20 -31 -52.5 -47.5t-71.5 -16.5q-76 0 -119 52.5
t-43 148.5l73 2q0 -66 22.5 -98.5t68.5 -32.5q33 0 56.5 17.5t49.5 59.5q45 -34 65.5 -73t20.5 -83q0 -86 -63.5 -141.5t-161.5 -55.5q-82 0 -144.5 40.5t-96.5 116.5l16 94q10 -31 15.5 -66t5.5 -61q0 -126 -47.5 -228.5t-152.5 -174.5zM873 302q-46 0 -78 31.5t-32 77.5
q0 47 32 78t78 31h854q47 0 78.5 -31t31.5 -78q0 -46 -31.5 -77.5t-78.5 -31.5h-854zM873 372h854q18 0 29 11t11 28t-11 28t-29 11h-854q-18 0 -29 -11t-11 -28t11 -28t29 -11z" />
    <glyph glyph-name="warning" unicode="&#x26a0;" vert-adv-y="2600" 
d="M439 -340q-73 0 -121 48t-48 121q0 49 25 101l839 1695q57 115 166 115t166 -115l839 -1695q25 -52 25 -101q0 -73 -47.5 -121t-121.5 -48h-1722zM1300 -47q-36 0 -61.5 25.5t-25.5 62.5t25 62t62 25t62 -25t25 -62t-25.5 -62.5t-61.5 -25.5zM439 -260h1722q41 0 65 23.5
t24 63.5q0 35 -17 67l-839 1696q-34 70 -94 70q-59 0 -94 -71l-839 -1694q-17 -34 -17 -68q0 -39 24.5 -63t64.5 -24zM1300 226q-20 0 -34 12.5t-16 31.5l-62 765q-5 62 27 101.5t85 39.5q54 0 85.5 -40t26.5 -101l-62 -765q-1 -19 -15.5 -31.5t-34.5 -12.5z" />
    <glyph glyph-name="highVoltage" unicode="&#x26a1;" vert-adv-y="2600" 
d="M766 -340q-28 0 -48 19.5t-20 48.5q0 16 9 37.5t37 67.5l403 659h-601q-31 0 -53.5 20.5t-22.5 51.5q0 40 31 64l1339 1082q17 14 31.5 22t28.5 8q41 0 62.5 -34t-3.5 -75l-440 -718h535q32 0 54 -20t22 -52q0 -39 -30 -64l-1247 -1069q-31 -27 -50.5 -37.5t-36.5 -10.5z
M800 -239l1242 1065q3 2 2.5 4.5t-4.5 2.5h-657l486 795q2 4 0 5.5t-6 -1.5l-1305 -1054q-3 -2 -2.5 -4t3.5 -2h724l-491 -804q-4 -7 -1 -9.5t9 2.5z" />
    <glyph glyph-name="transgenderSymbol" unicode="&#x26a7;" vert-adv-y="2600" 
d="M1209 -340v204h-223v180h223v221q-113 22 -201 90.5t-138.5 168t-50.5 214.5q0 73 21.5 142t62.5 127l-114 115l-156 -153l-126 130l154 151l-181 183v-205h-180v512h512v-180h-203l182 -184l164 160l126 -130l-162 -158l113 -112q59 41 126.5 62t141.5 21t142 -21
t126 -62l423 424h-203v180h512v-512h-180v205l-423 -426q41 -58 62.5 -127t21.5 -142q0 -116 -50.5 -216t-139 -168t-202.5 -89v-221h223v-180h-223v-204h-180zM1300 436q83 0 151 41t109 109.5t41 151.5t-41 151t-109 109t-151 41q-82 0 -150.5 -41t-109.5 -109t-41 -151
q0 -82 41 -151t109.5 -110t150.5 -41z" />
    <glyph glyph-name="circle" unicode="&#x26aa;" vert-adv-y="2600" 
d="M1301 -340q-214 0 -402.5 81.5t-332 225t-225 332t-81.5 401.5t81.5 401.5t225 332t332 225t402.5 81.5q213 0 401 -81.5t331.5 -225t225 -332t81.5 -401.5t-81.5 -401.5t-225 -332t-331.5 -225t-401 -81.5zM554 738q-17 1 -27.5 14t-8.5 31q24 179 119.5 328t243.5 247
t327 123q20 3 33.5 -8t13.5 -29q0 -37 -35 -42q-161 -21 -294.5 -109t-220 -222.5t-107.5 -296.5q-2 -17 -14 -27t-30 -9zM1301 -260q197 0 370.5 75.5t305.5 208t207.5 306t75.5 370.5t-75.5 370.5t-207.5 306t-305.5 208t-370.5 75.5t-371 -75.5t-306.5 -208t-208 -306
t-75.5 -370.5t75.5 -370.5t208 -306t306.5 -208t371 -75.5z" />
    <glyph glyph-name="uni25CF" unicode="&#x26ab;" vert-adv-y="2600" 
d="M1301 -340q213 0 401 81.5t331.5 225t225 332t81.5 401.5t-81.5 401.5t-225 332t-331.5 225t-401 81.5q-214 0 -402.5 -81.5t-332 -225t-225 -332t-81.5 -401.5t81.5 -401.5t225 -332t332 -225t402.5 -81.5zM1301 -260q-197 0 -371 75.5t-306.5 208t-208 306t-75.5 370.5
t75.5 370.5t208 306t306.5 208t371 75.5t370.5 -75.5t305.5 -208t207.5 -306t75.5 -370.5t-75.5 -370.5t-207.5 -306t-305.5 -208t-370.5 -75.5zM569 8h1462l20 64h-1502zM608 -31h64v1457h-64v-1457zM938 -235h64v1870h-64v-1870zM365 338h1870v64h-1870v-64zM315 668h1970
v64h-1970v-64zM1268 -285h64v1970h-64v-1970zM1598 -235h64v1870h-64v-1870zM365 998h1870v64h-1870v-64zM1928 -31h64v1457h-64v-1457zM549 1328h1502l-20 64h-1462z" />
    <glyph glyph-name="uni26B0" unicode="&#x26b0;" vert-adv-y="2600" 
d="M378 1373v-453l228 -587l1239 -580l377 277v447l-784 960l-645 215zM298 1417l482 323l706 -235l816 -1000v-515l-447 -330l-1311 614l-246 632v511zM301 1379l75 29l230 -594l1239 -581l393 290l48 -64l-431 -318l-1311 613zM1890 -287h-80v471h80v-471zM615 307h-80
v477h80v-477zM1323 232l310 -146v-89l-310 146v89zM783 485l310 -146v-89l-310 146v89z" />
    <glyph glyph-name="uni26B1" unicode="&#x26b1;" vert-adv-y="2600" 
d="M1300 -340q-114 0 -193 23t-159 79q-64 86 -115 208.5t-86 274.5t-53.5 326t-18.5 362q0 129 57.5 223t196.5 185q27 18 40 46.5t22 87.5l73 -11q-13 -74 -33.5 -115t-60.5 -69q-124 -86 -172 -162.5t-48 -184.5q0 -181 17 -348t50 -312.5t80.5 -262.5t107.5 -198
q62 -41 130.5 -59t164.5 -18t164.5 18t130.5 59q60 81 107 198.5t80 263t50 312.5t17 347q0 109 -47.5 185t-172.5 162q-38 26 -59 67t-35 117l73 11q9 -60 22 -88t41 -46q139 -92 196.5 -186t57.5 -222q0 -187 -18.5 -361t-54 -326.5t-87 -275.5t-116.5 -210
q-77 -55 -156.5 -77.5t-192.5 -22.5zM1300 -135q-160 0 -276 44t-193 95l15 77q71 -52 184 -96.5t270 -44.5q158 0 270.5 44.5t183.5 96.5l15 -77q-76 -51 -192.5 -95t-276.5 -44zM1300 838q-159 0 -281 21.5t-204.5 49t-121.5 45.5l30 68q38 -17 115.5 -43t193 -46
t268.5 -20t268 20t192 46t115 43l30 -68q-39 -18 -120.5 -45.5t-203.5 -49t-281 -21.5zM1300 659q-163 0 -285.5 21t-203 48.5t-118.5 46.5l30 67q38 -17 114 -43t191.5 -45.5t271.5 -19.5t271 19.5t191 45.5t113 43l31 -67q-38 -19 -118.5 -46.5t-202 -48.5t-285.5 -21z
M1300 1231q-132 0 -228.5 14t-150.5 42l46 62q47 -21 131.5 -32t201.5 -11t201.5 11t131.5 32l46 -62q-54 -28 -150.5 -42t-228.5 -14zM1300 1411q-223 0 -336.5 36.5t-113.5 111.5q0 44 37 74.5t115 54.5l39 12q62 20 128.5 30t130.5 10q63 0 129.5 -10t129.5 -30l39 -12
q78 -24 115 -54.5t37 -74.5q0 -74 -113 -111t-337 -37zM1300 1486q106 0 190 10t133 27t49 37q0 14 -24 27.5t-72 28.5l-39 12q-59 18 -120 27.5t-117 9.5t-116.5 -9t-120.5 -28l-39 -12q-49 -15 -73 -29t-24 -27q0 -20 49 -37t133.5 -27t190.5 -10z" />
    </font>
</defs>
</svg>
